Волк-полицейский / WolfCop (2014) HDRip-AVC от АРХАНГЕЛ | L1

 
Автор Сообщение

sergej644 ®

Пол:

Стаж: 4 года 11 месяцев

Сообщений: 6045

Откуда: Soviet Union



Награды: Нет

Торрент-статистика

Создавать темы 31-Окт-2014 19:31

[Цитировать]

--Волк-полицейский / WolfCop (2014)
Информация о фильме
Название: Волк-полицейский
Оригинальное название: WolfCop
Год выхода: 2014
Жанр: ужасы, комедия
Режиссер: Лоуелл Дин
В ролях: Лео Фафард, Эми Матисио, Джонатан Черри, Сара Линд, Эйдан Дивайн, Джесси Мосс, Корина Конли, Джеймс Уиттингэм, Риланд Александр, Laura Abramsen
О фильме:
Это не редкость для полицейского-алкоголика Лу напиваться до потери сознания, а затем просыпаться в незнакомых местах, но однажды с ним начинают происходить странные вещи…

Страна: Канада
Студия: Echolands Creative Group
Продолжительность: 01:18:54
Перевод: Любительский (одноголосый) - xixidok
Файл
Кодек: h.264 (MKV)
Качество: HDRip-AVC
Видео: AVC, 1024 x 576, ~2 100 Kbps
Звук: Russian: AC3, 192 kb/s (2 ch) / English: AC3, 448 kb/s, (6 ch)
Субтитры: нет
Дополнительно: Сохранены оригинальные чаптеры как на Blu-Ray
Семпл

Скриншоты

MediaInfo

General
Unique ID : 187838690260919421504087422158291190620 (0x8D506A73C191C2C993C369CB2371C35C)
Complete name : D: Wolfcop.2014.L1.HDRip-AVC.mkv
Format : Matroska
Format version : Version 4 / Version 2
File size : 1.50 GiB
Duration : 1h 18mn
Overall bit rate : 2 715 Kbps
Encoded date : UTC 2014-10-31 13:35:10
Writing application : mkvmerge v7.2.0 ('On Every Street') 64bit built on Sep 13 2014 15:52:10
Writing library : libebml v1.3.0 + libmatroska v1.4.1
DURATION : 01:18:54.912000000
NUMBER_OF_FRAMES : 147966
NUMBER_OF_BYTES : 265155072
_STATISTICS_WRITING_APP : mkvmerge v7.2.0 ('On Every Street') 64bit built on Sep 13 2014 15:52:10
_STATISTICS_WRITING_DATE_UTC : 2014-10-31 13:35:10
_STATISTICS_TAGS : BPS DURATION NUMBER_OF_FRAMES NUMBER_OF_BYTES
Video
ID : 1
Format : AVC
Format/Info : Advanced Video Codec
Format profile : High@L4.1
Format settings, CABAC : Yes
Format settings, ReFrames : 4 frames
Codec ID : V_MPEG4/ISO/AVC
Duration : 1h 18mn
Bit rate : 2 100 Kbps
Width : 1 024 pixels
Height : 576 pixels
Display aspect ratio : 16:9
Frame rate mode : Constant
Frame rate : 23.976 fps
Color space : YUV
Chroma subsampling : 4:2:0
Bit depth : 8 bits
Scan type : Progressive
Bits/(Pixel*Frame) : 0.148
Stream size : 1.11 GiB (74%)
Writing library : x264 core 125 r2200 999b753
Encoding settings : cabac=1 / ref=3 / deblock=1:-1:-1 / analyse=0x3:0x113 / me=hex / subme=7 / psy=1 / psy_rd=1.00:0.15 / mixed_ref=1 / me_range=16 / chroma_me=1 / trellis=1 / 8x8dct=1 / cqm=0 / deadzone=21,11 / fast_pskip=1 / chroma_qp_offset=-3 / threads=6 / lookahead_threads=1 / sliced_threads=0 / nr=0 / decimate=1 / interlaced=0 / bluray_compat=0 / constrained_intra=0 / bframes=3 / b_pyramid=2 / b_adapt=1 / b_bias=0 / direct=1 / weightb=1 / open_gop=0 / weightp=2 / keyint=250 / keyint_min=23 / scenecut=40 / intra_refresh=0 / rc_lookahead=40 / rc=abr / mbtree=1 / bitrate=2100 / ratetol=1.0 / qcomp=0.60 / qpmin=0 / qpmax=69 / qpstep=4 / ip_ratio=1.40 / aq=1:1.00
Language : English
Default : Yes
Forced : No
Audio #1
ID : 2
Format : AC-3
Format/Info : Audio Coding 3
Mode extension : CM (complete main)
Format settings, Endianness : Big
Codec ID : A_AC3
Duration : 1h 18mn
Bit rate mode : Constant
Bit rate : 192 Kbps
Channel(s) : 2 channels
Channel positions : Front: L R
Sampling rate : 44.1 KHz
Bit depth : 16 bits
Compression mode : Lossy
Stream size : 108 MiB (7%)
Language : Russian
Default : Yes
Forced : No
Audio #2
ID : 3
Format : AC-3
Format/Info : Audio Coding 3
Mode extension : CM (complete main)
Format settings, Endianness : Big
Codec ID : A_AC3
Duration : 1h 18mn
Bit rate mode : Constant
Bit rate : 448 Kbps
Channel(s) : 6 channels
Channel positions : Front: L C R, Side: L R, LFE
Sampling rate : 48.0 KHz
Bit depth : 16 bits
Compression mode : Lossy
Stream size : 253 MiB (17%)
Language : English
Default : No
Forced : No
Menu
00:00:00.000 : en:00:00:00.000
00:05:39.297 : en:00:05:39.297
00:12:07.352 : en:00:12:07.352
00:17:58.661 : en:00:17:58.661
00:24:25.923 : en:00:24:25.923
00:30:06.263 : en:00:30:06.263
00:37:08.768 : en:00:37:08.768
00:42:11.446 : en:00:42:11.446
00:48:23.692 : en:00:48:23.692
00:54:27.222 : en:00:54:27.222
01:00:38.426 : en:01:00:38.426
01:06:42.624 : en:01:06:42.624
Релиз от:
[Профиль] [ЛС]
Кто просматривает тему:

Показать сообщения:    

Текущее время: Сегодня 20:24

Часовой пояс: GMT



Вы не можете начинать темы
Вы не можете отвечать на сообщения
Вы не можете редактировать свои сообщения
Вы не можете удалять свои сообщения
Вы не можете голосовать в опросах
Вы не можете прикреплять файлы к сообщениям
Вы не можете скачивать файлы