Волк и портной (Зенонас Таракявичус) [1966, рисованный мультфильм, VHSRip]

 
Автор Сообщение

TorrentFilm ®

Пол:

Стаж: 2 года

Сообщений: 7741



Награды: Нет

Торрент-статистика

Создавать темы 27-Май-2015 00:04

[Цитировать]

Волк и портной
Страна: СССР
Жанр: рисованный мультфильм
Продолжительность: 00:07:34
Год выпуска: 1966
Русские субтитры: нет
Режиссёр: Зенонас Таракявичус
Описание: Мультфильм по мотивам литовской сказки, про портного, который сумел перехитрить волка.
Кинопоиск
Качество: VHSRip
Формат: AVI
Видео: 640x432 (1.48:1), 25 fps, XviD MPEG-4 ~1085 kbps avg, 0.157 bit/pixel
Аудио: 44.1 kHz, MPEG Layer 3, 2 ch, ~128.00 kbps avg
Субтитры: Отсутствуют

Подробные технические данные

GeneralComplete name : E:\1\мультики\Волк и портной 1966.aviFormat : AVIFormat/Info : Audio Video InterleaveFile size : 66.2 MiBDuration : 7mn 34sOverall bit rate : 1 223 KbpsWriting application : VirtualDubMod 1.5.10.3 | www.virtualdub-fr.org || (build 2550/release)Writing library : VirtualDubMod build 2550/release
VideoID : 0Format : MPEG-4 VisualFormat profile : Advanced Simple@L5Format settings, BVOP : 2Format settings, QPel : NoFormat settings, GMC : No warppointsFormat settings, Matrix : Default (H.263)Codec ID : XVIDCodec ID/Hint : XviDDuration : 7mn 34sBit rate : 1 085 KbpsWidth : 640 pixelsHeight : 432 pixelsDisplay aspect ratio : 3:2Frame rate : 25.000 fpsColor space : YUVChroma subsampling : 4:2:0Bit depth : 8 bitsScan type : ProgressiveCompression mode : LossyBits/(Pixel*Frame) : 0.157Stream size : 58.8 MiB (89%)Writing library : XviD 1.2.1 (UTC 2008-12-04)
AudioID : 1Format : MPEG AudioFormat version : Version 1Format profile : Layer 3Codec ID : 55Codec ID/Hint : MP3Duration : 7mn 34sBit rate mode : ConstantBit rate : 128 KbpsChannel count : 2 channelsSampling rate : 44.1 KHzCompression mode : LossyStream size : 6.93 MiB (10%)Alignment : Split accross interleavesInterleave, duration : 40 ms (1.00 video frame)Interleave, preload duration : 500 msWriting library : LAME3.99rEncoding settings : -m s -V 4 -q 2 -lowpass 17 -b 128

Скриншоты

[Профиль] [ЛС]
Кто просматривает тему:

Показать сообщения:    

Текущее время: Сегодня 06:08

Часовой пояс: GMT



Вы не можете начинать темы
Вы не можете отвечать на сообщения
Вы не можете редактировать свои сообщения
Вы не можете удалять свои сообщения
Вы не можете голосовать в опросах
Вы не можете прикреплять файлы к сообщениям
Вы не можете скачивать файлы