Волки / Wolves (2014) WEB-DLRip-AVC от New-Team | D | Лицензия

 
Автор Сообщение

sergej644 ®

Пол:

Стаж: 4 года 11 месяцев

Сообщений: 6045

Откуда: Soviet Union



Награды: Нет

Торрент-статистика

Создавать темы 23-Ноя-2014 12:24

[Цитировать]

Волки
Wolves
Страна: Франция
Жанр: ужасы, боевик
Год выпуска: 2014
Продолжительность: 01:30:47
Перевод: Профессиональный (полное дублирование) [Лицензия R5]
Cубтитры: Английские
Оригинальная аудиодорожка: Английский
Режиссер:
Дэвид Хэйтер / David Hayter
В ролях:
Джейсон Момоа, Лукас Тилл, Джон Пайпер-Фергюсон, Мерритт Паттерсон, Стивен МакХэтти, Дженнифер Хейл, Адам Батчер Кейтлин Вонг, Мириам МакДональд, Ален Мусси
Описание:
Кайдену Ричардсу 18 лет. Он — капитан студенческой футбольной команды, который встречается с самой завидной девушкой округа. Но однажды проснувшись ночью, он видит, что его родители зверски убиты. Кайден понимает, что это его рук дело — он превратился в дикого волка. В панике Кайден бежит из города и находит убежище в небольшом городке Волчий Хребет, который окутан еще более страшными тайнами.

Релиз:
Автор рипа: Stalker oK
Сэмпл: multi-up
Качество видео: WEB-DLRip-AVC [WEB-DL 720p]
Формат видео: MKV
Видео кодек: AVC
Аудио кодек: AC3
Видео: 1537 Кбит/сек, 936*506 (1,850), в 23,976 кадр/сек, AVC
Аудио #1: Russian, 384 Кбит/сек, 48,0 КГц, 16 бит, 6 канала(ов), AC-3
Аудио #2: English, 384 Кбит/сек, 48,0 КГц, 16 бит, 6 канала(ов), AC-3

MediaInfo

Общее
Уникальный идентификатор : 239114007855583934549282074254625055235 (0xB3E3AECB01F763F0B0D9789AB769A203)
Полное имя : G:временные файлыВолки WolvesVolki.2014.WEB-DLRip-AVC.Dub.1.45Gb...stalkerok.new-team.mkv
Формат : Matroska
Размер файла : 1,46 Гбайт
Продолжительность : 1 ч. 30 м.
Общий поток : 2306 Кбит/сек
Название фильма : Wolves, 2014 (New-Team) (Rip by Stalker oK)
Дата кодирования : UTC 2014-11-23 09:38:31
Программа кодирования : mkvmerge v6.1.0 ('Old Devil') built on Mar 4 2013 09:10:42
Библиотека кодирования : libebml v1.3.0 + libmatroska v1.4.0
Видео
Идентификатор : 1
Формат : AVC
Формат/Информация : Advanced Video Codec
Профиль формата : High@L4.1
Параметр CABAC формата : Да
Параметр ReFrames формата : 12 кадры
Идентификатор кодека : V_MPEG4/ISO/AVC
Продолжительность : 1 ч. 30 м.
Битрейт : 1537 Кбит/сек
Ширина : 936 пикс.
Высота : 506 пикс.
Соотношение сторон : 1,850
Частота кадров : 23,976 кадр/сек
Цветовое пространство : YUV
Подвыборка цветности : 4:2:0
Битовая глубина : 8 бит
Тип развёртки : Прогрессивная
Бит/(Пиксели*Кадры) : 0.135
Размер потока : 969 Мбайт (65%)
Библиотека кодирования : x264 core 142 r2491kMod 24e4fed
Настройки программы : cabac=1 / ref=12 / deblock=1:-3:-3 / analyse=0x3:0x133 / me=umh / subme=11 / psy=1 / fade_compensate=0.00 / psy_rd=1.00:0.10 / mixed_ref=1 / me_range=32 / chroma_me=1 / trellis=2 / 8x8dct=1 / cqm=0 / deadzone=21,11 / fast_pskip=0 / chroma_qp_offset=-3 / threads=12 / lookahead_threads=3 / sliced_threads=0 / nr=0 / decimate=0 / interlaced=0 / bluray_compat=0 / constrained_intra=0 / fgo=0 / bframes=13 / b_pyramid=2 / b_adapt=2 / b_bias=0 / direct=3 / weightb=1 / open_gop=0 / weightp=2 / keyint=240 / keyint_min=23 / scenecut=40 / intra_refresh=0 / rc_lookahead=60 / rc=2pass / mbtree=0 / bitrate=1537 / ratetol=1.0 / qcomp=0.70 / qpmin=0 / qpmax=69 / qpstep=4 / cplxblur=20.0 / qblur=0.5 / vbv_maxrate=50000 / vbv_bufsize=62500 / nal_hrd=none / filler=0 / ip_ratio=1.40 / pb_ratio=1.30 / aq=3:0.90
Аудио #1
Идентификатор : 2
Формат : AC-3
Формат/Информация : Audio Coding 3
Расширение режима : CM (complete main)
Идентификатор кодека : A_AC3
Продолжительность : 1 ч. 30 м.
Вид битрейта : Постоянный
Битрейт : 384 Кбит/сек
Канал(ы) : 6 канала(ов)
Расположение каналов : Front: L C R, Side: L R, LFE
Частота : 48,0 КГц
Битовая глубина : 16 бит
Метод сжатия : С потерями
Размер потока : 249 Мбайт (17%)
Язык : Russian
Аудио #2
Идентификатор : 3
Формат : AC-3
Формат/Информация : Audio Coding 3
Расширение режима : CM (complete main)
Идентификатор кодека : A_AC3
Продолжительность : 1 ч. 30 м.
Вид битрейта : Постоянный
Битрейт : 384 Кбит/сек
Канал(ы) : 6 канала(ов)
Расположение каналов : Front: L C R, Side: L R, LFE
Частота : 48,0 КГц
Битовая глубина : 16 бит
Метод сжатия : С потерями
Размер потока : 249 Мбайт (17%)
Заголовок : Original
Язык : English
Текст
Идентификатор : 4
Формат : UTF-8
Идентификатор кодека : S_TEXT/UTF8
Идентификатор кодека/Информация : UTF-8 Plain Text
Язык : English
Меню
00:00:00.000 : en:1
00:05:39.000 : en:2
00:14:24.000 : en:3
00:24:32.000 : en:4
00:34:52.000 : en:5
00:42:40.000 : en:6
00:51:22.000 : en:7
01:00:11.000 : en:8
01:07:20.000 : en:9
01:13:32.000 : en:10
01:19:04.000 : en:11
01:25:01.000 : en:12

[Профиль] [ЛС]
Показать сообщения:    

Текущее время: Сегодня 11:53

Часовой пояс: GMT



Вы не можете начинать темы
Вы не можете отвечать на сообщения
Вы не можете редактировать свои сообщения
Вы не можете удалять свои сообщения
Вы не можете голосовать в опросах
Вы не можете прикреплять файлы к сообщениям
Вы не можете скачивать файлы