Волки / Wolves (2014) WEBRip (AVC) от ExKinoRay | Чистый звук

 
Автор Сообщение

sergej644 ®

Пол:

Стаж: 4 года 11 месяцев

Сообщений: 6045

Откуда: Soviet Union



Награды: Нет

Торрент-статистика

Создавать темы 28-Сен-2014 18:57

[Цитировать]

--Волки / Wolves
Информация о фильме
Название: Волки
Оригинальное название: Wolves
Год выпуска: 2014
Жанр: Ужасы, боевик
Выпущено: Франция, Copperheart Entertainment
Режиссер: Дэвид Хэйтер
В ролях: Джейсон Момоа, Лукас Тилл, Джон Пайпер-Фергюсон, Мерритт Паттерсон, Стивен МакХэтти, Дженнифер Хейл, Адам Батчер Кейтлин Вонг, Мириам МакДональд, Ален Мусси
О фильме: Кайдену Ричардсу 18 лет. Он — капитан студенческой футбольной команды, который встречается с самой завидной девушкой округа. Но однажды проснувшись ночью, он видит, что его родители зверски убиты. Кайден понимает, что это его рук дело — он превратился в дикого волка. В панике Кайден бежит из города, и находит убежище в небольшом городке Волчий Хребет, который окутан еще более страшными тайнами.

Файл
Качество: WEBRip (AVC)
Видео: MPEG-4 AVC, 2111 Кбит/с, 1024х564, 24 кадр/с
Аудио: AC3, 2 ch, 320 Кбит/с
Размер: 1.54 ГБ
Продолжительность: 01:30:25
Перевод: Дублированный
Озвучивание - Дублированное (чистый звук)

x264

x264 [info]: frame I:1149 Avg QP:12.55 size: 70548
x264 [info]: frame P:35425 Avg QP:16.63 size: 23259
x264 [info]: frame B:93634 Avg QP:21.25 size: 5613
x264 [info]: consecutive B-frames: 3.9% 4.8% 19.5% 34.0% 18.1% 16.2% 2.6% 0.4% 0.1% 0.5%
x264 [info]: mb I I16..4: 30.2% 40.9% 29.0%
x264 [info]: mb P I16..4: 3.9% 11.3% 2.5% P16..4: 23.7% 22.5% 7.5% 3.1% 0.4% skip:25.1%
x264 [info]: mb B I16..4: 0.7% 1.4% 0.3% B16..8: 25.5% 14.6% 2.4% direct: 3.6% skip:51.5% L0:39.6% L1:44.7% BI:15.7%
x264 [info]: 8x8 transform intra:59.9% inter:50.9%
x264 [info]: direct mvs spatial:95.6% temporal:4.4%
x264 [info]: coded y,uvDC,uvAC intra: 55.6% 82.1% 70.9% inter: 14.1% 20.7% 12.0%
x264 [info]: i16 v,h,dc,p: 70% 11% 4% 15%
x264 [info]: i8 v,h,dc,ddl,ddr,vr,hd,vl,hu: 14% 9% 16% 7% 10% 11% 10% 11% 13%
x264 [info]: i4 v,h,dc,ddl,ddr,vr,hd,vl,hu: 28% 11% 15% 5% 9% 9% 8% 7% 9%
x264 [info]: i8c dc,h,v,p: 40% 25% 21% 14%
x264 [info]: Weighted P-Frames: Y:7.5% UV:4.6%
x264 [info]: ref P L0: 55.8% 13.0% 16.1% 4.9% 3.4% 2.2% 1.9% 1.2% 1.1% 0.4% 0.0%
x264 [info]: ref B L0: 86.3% 7.7% 2.7% 1.4% 0.8% 0.6% 0.4% 0.2%
x264 [info]: ref B L1: 95.6% 4.4%
x264 [info]: kb/s:2109.41

Инфо-файл

Общее
Уникальный идентификатор : 221509364154539717377434716345174723144 (0xA6A526D8599FD5A99AA467B307960A48)
Полное имя : D:ЗагрузкиWolves.2014.x264.WEB-Rip(AVC).ExKinoRay.mkv
Формат : Matroska
Версия формата : Version 2
Размер файла : 1,54 Гбайт
Продолжительность : 1 ч. 30 м.
Общий поток : 2431 Кбит/сек
Название фильма : Волки.2014.Rip by: ollan
Дата кодирования : UTC 2014-09-28 16:22:53
Программа кодирования : mkvmerge v5.6.0 ('Kenya Kane') built on May 27 2012 16:44:04
Библиотека кодирования : libebml v1.2.3 + libmatroska v1.3.0
Видео
Идентификатор : 1
Формат : AVC
Формат/Информация : Advanced Video Codec
Профиль формата : High@L4.1
Параметр CABAC формата : Да
Параметр ReFrames формата : 9 кадров
Идентификатор кодека : V_MPEG4/ISO/AVC
Продолжительность : 1 ч. 30 м.
Битрейт : 2111 Кбит/сек
Ширина : 1024 пикселя
Высота : 564 пикселя
Соотношение сторон : 16:9
Режим частоты кадров : Постоянный
Частота кадров : 24,000 кадра/сек
Цветовое пространство : YUV
Субдискретизация насыщенности : 4:2:0
Битовая глубина : 8 бит
Тип развёртки : Прогрессивная
Бит/(Пиксели*Кадры) : 0.152
Размер потока : 1,30 Гбайт (85%)
Библиотека кодирования : x264 core 125 r2200 999b753
Настройки программы : cabac=1 / ref=9 / deblock=1:-3:-3 / analyse=0x3:0x133 / me=umh / subme=11 / psy=1 / psy_rd=1.00:0.10 / mixed_ref=1 / me_range=32 / chroma_me=1 / trellis=2 / 8x8dct=1 / cqm=0 / deadzone=21,11 / fast_pskip=0 / chroma_qp_offset=-3 / threads=12 / lookahead_threads=2 / sliced_threads=0 / nr=0 / decimate=0 / interlaced=0 / bluray_compat=0 / constrained_intra=0 / bframes=9 / b_pyramid=2 / b_adapt=2 / b_bias=0 / direct=3 / weightb=1 / open_gop=0 / weightp=2 / keyint=240 / keyint_min=23 / scenecut=40 / intra_refresh=0 / rc_lookahead=40 / rc=2pass / mbtree=1 / bitrate=2111 / ratetol=1.0 / qcomp=0.60 / qpmin=0 / qpmax=69 / qpstep=4 / cplxblur=20.0 / qblur=0.5 / ip_ratio=1.40 / aq=1:1.00
Язык : English
Default : Да
Forced : Нет
Аудио
Идентификатор : 2
Формат : AC-3
Формат/Информация : Audio Coding 3
Расширение режима : CM (complete main)
Параметр Endianness формата : Big
Идентификатор кодека : A_AC3
Продолжительность : 1 ч. 30 м.
Вид битрейта : Постоянный
Битрейт : 320 Кбит/сек
Каналы : 2 канала
Расположение каналов : Front: L R
Частота : 48,0 КГц
Битовая глубина : 16 бит
Метод сжатия : С потерями
Размер потока : 207 Мбайт (13%)
Заголовок : Дублированный
Язык : Russian
Default : Да
Forced : Нет

Скриншоты



Релиз от: Rip by:
[Профиль] [ЛС]
Показать сообщения:    

Текущее время: Сегодня 02:17

Часовой пояс: GMT



Вы не можете начинать темы
Вы не можете отвечать на сообщения
Вы не можете редактировать свои сообщения
Вы не можете удалять свои сообщения
Вы не можете голосовать в опросах
Вы не можете прикреплять файлы к сообщениям
Вы не можете скачивать файлы