Волки / Wolfen (1981) BDRip [H.264/1080p]

 
Автор Сообщение

sergej644 ®

Пол:

Стаж: 4 года 11 месяцев

Сообщений: 6046

Откуда: Soviet Union



Награды: Нет

Торрент-статистика

Создавать темы 18-Июн-2015 22:09

[Цитировать]

-Волки / Wolfen (1981) BDRip [H.264/1080p]-Производство: США
Жанр: Ужасы, триллер
Режиссёр: Майкл Уодли
Актёры: Альберт Финни, Дайан Венора, Эдвард Джеймс Олмос, Грегори Хайнс, Том Нунен, Дик О’Нил, Дел Берти, Питер Майкл Гец, Сэм Грэй, Ральф Белл, Макс М. Браун, Энн Мари Потамо, Сара Фелдер, Реджинальд ВелДжонсон, Джеймс Толкан, Джон МакКарри, Крис Мэнор, Дональд Симингтон, Джеффри Уэр, Джеффри Томпсон, Виктор Арнольд, Фрэнк Адонис, Ричард Минченберг, Рэймонд Серра, Томас Райан
Описание:
Как вы думаете, что общего может быть между богатым торговцем недвижимостью, его женой-наркоманкой и грязным пьяницей из трущоб? Лишь одно жуткое обстоятельство: все они жертвы неслыханных по жестокости убийств, потрясших Нью-Йорк! Ведущий расследование ветеран убойного отдела скоро с ужасом начинает понимать, что зловещие убийства совершаются древними сверхъестественными существами...

Продолжительность: 01:54:06
Качество: BDRip
Перевод: Профессиональный (двухголосый закадровый)
Язык субтитров: Английский
Вид субтитров: Вшитые (отключаемые)
Видео: MPEG-4 AVC/H.264, ~12.3 Mbps, 1920х800
Аудио #1: Русский, АС3, 2 ch, 192 kbps | Премьер
Аудио #2: Английский, DTS, 6 ch, 1509 kbps

MediaInfo

Общее
Уникальный идентификатор : 229555133149858506445862444213975424083 (0xACB2B5E227D7C9E2BC41CE6757AC9C53)
Полное имя : Volki.1981.BDRip.1080p_NNM-CLUB.mkv
Формат : Matroska
Версия формата : Version 4 / Version 2
Размер файла : 11,4 Гбайт
Продолжительность : 1 ч. 54 м.
Общий поток : 14,3 Мбит/сек
Название фильма : Волки
Дата кодирования : UTC 2015-06-14 12:24:00
Программа кодирования : mkvmerge v7.8.0 ('River Man') 64bit built on Mar 27 2015 16:31:37
Библиотека кодирования : libebml v1.3.1 + libmatroska v1.4.2
_STATISTICS_WRITING_APP : mkvmerge v7.8.0 ('River Man') 64bit built on Mar 27 2015 16:31:37
_STATISTICS_WRITING_DATE_UTC : 2015-06-14 12:24:00
_STATISTICS_TAGS : BPS DURATION NUMBER_OF_FRAMES NUMBER_OF_BYTES
DURATION : 01:47:42.789000000
NUMBER_OF_FRAMES : 913
NUMBER_OF_BYTES : 32203
Видео
Идентификатор : 1
Формат : AVC
Формат/Информация : Advanced Video Codec
Профиль формата : [url=mailto:High@L4.1]High@L4.1[/url]
Параметр CABAC формата : Да
Параметр ReFrames формата : 4 кадра
Идентификатор кодека : V_MPEG4/ISO/AVC
Продолжительность : 1 ч. 54 м.
Битрейт : 12,3 Мбит/сек
Ширина : 1920 пикселей
Высота : 800 пикселей
Соотношение сторон : 2,40:1
Режим частоты кадров : Постоянный
Частота кадров : 23,976 кадра/сек
Цветовое пространство : YUV
Субдискретизация насыщенности : 4:2:0
Битовая глубина : 8 бит
Тип развёртки : Прогрессивная
Бит/(Пиксели*Кадры) : 0.335
Размер потока : 9,84 Гбайт (86%)
Заголовок : Волки для NNM-CLUB.me
Библиотека кодирования : x264 core 146 r2538 121396c
Настройки программы : cabac=1 / ref=4 / deblock=1:-1:-1 / analyse=0x3:0x113 / me=umh / subme=10 / psy=1 / psy_rd=1.00:0.15 / mixed_ref=1 / me_range=32 / chroma_me=1 / trellis=2 / 8x8dct=1 / cqm=0 / deadzone=21,11 / fast_pskip=1 / chroma_qp_offset=-3 / threads=6 / lookahead_threads=1 / sliced_threads=0 / nr=0 / decimate=1 / interlaced=0 / bluray_compat=0 / constrained_intra=0 / bframes=12 / b_pyramid=2 / b_adapt=2 / b_bias=0 / direct=1 / weightb=1 / open_gop=0 / weightp=2 / keyint=230 / keyint_min=23 / scenecut=40 / intra_refresh=0 / rc_lookahead=40 / rc=crf / mbtree=0 / crf=19.5 / qcomp=0.60 / qpmin=0 / qpmax=69 / qpstep=4 / vbv_maxrate=40000 / vbv_bufsize=50000 / crf_max=0.0 / nal_hrd=none / filler=0 / ip_ratio=1.40 / pb_ratio=1.30 / aq=1:1.00
Язык : English
Default : Да
Forced : Нет
_STATISTICS_WRITING_APP : mkvmerge v7.8.0 ('River Man') 64bit built on Mar 27 2015 16:31:37
_STATISTICS_WRITING_DATE_UTC : 2015-06-14 12:24:00
_STATISTICS_TAGS : BPS DURATION NUMBER_OF_FRAMES NUMBER_OF_BYTES
DURATION : 01:54:05.923000000
NUMBER_OF_FRAMES : 164138
NUMBER_OF_BYTES : 10806246131
Аудио #1
Идентификатор : 2
Формат : AC-3
Формат/Информация : Audio Coding 3
Расширение режима : CM (complete main)
Параметр Endianness формата : Big
Идентификатор кодека : A_AC3
Продолжительность : 1 ч. 54 м.
Вид битрейта : Постоянный
Битрейт : 192 Кбит/сек
Каналы : 2 канала
Расположение каналов : Front: L R
Частота : 48,0 КГц
Битовая глубина : 16 бит
Метод сжатия : С потерями
Размер потока : 157 Мбайт (1%)
Заголовок : Русский
Язык : Russian
Default : Да
Forced : Нет
Аудио #2
Идентификатор : 3
Формат : DTS
Формат/Информация : Digital Theater Systems
Режим : 16
Параметр Endianness формата : Big
Идентификатор кодека : A_DTS
Продолжительность : 1 ч. 54 м.
Вид битрейта : Постоянный
Битрейт : 1509 Кбит/сек
Каналы : 6 каналов
Расположение каналов : Front: L C R, Side: L R, LFE
Частота : 48,0 КГц
Битовая глубина : 24 бит
Метод сжатия : С потерями
Размер потока : 1,20 Гбайт (11%)
Заголовок : Английский
Язык : English
Default : Нет
Forced : Нет
Текст
Идентификатор : 4
Формат : UTF-8
Идентификатор кодека : S_TEXT/UTF8
Идентификатор кодека/Информация : UTF-8 Plain Text
Заголовок : Английский
Язык : English
Default : Нет
Forced : Нет

Награды и премии

Сатурн, 1982 год
Номинации (4):
Лучший фильм ужасов
Лучший режиссер (Майкл Уодли)
Лучший актер (Альберт Финни)
Лучший сценарий
Скриншоты:
[Профиль] [ЛС]
Показать сообщения:    

Текущее время: Сегодня 17:42

Часовой пояс: GMT



Вы не можете начинать темы
Вы не можете отвечать на сообщения
Вы не можете редактировать свои сообщения
Вы не можете удалять свои сообщения
Вы не можете голосовать в опросах
Вы не можете прикреплять файлы к сообщениям
Вы не можете скачивать файлы