Вокруг света на воздушном шаре / The World\'s greantest balloon adventures (Allie Dunnington, Phil Dunnington) [2012, Документальный, HDTV 1080i]

 
Автор Сообщение

TorrentFilm ®

Пол:

Стаж: 2 года

Сообщений: 7741



Награды: Нет

Торрент-статистика

Создавать темы 29-Дек-2014 00:15

[Цитировать]

Вокруг света на воздушном шаре / The World's greatest balloon adventures
Год выпуска: 2012
Страна: Франция
Жанр: Документальный
Продолжительность: 00:52:00 серия
Перевод: Профессиональный (дублированный)
Режиссер: Allie Dunnington, Phil Dunnington
Описание: Документальный сериал «Вокруг света на воздушном шаре» рассказывает об истории попыток кругосветных путешествий по воздуху.
Воздушный шар стал первым аппаратом, который позволил человеку почувствовать себя птицей и подняться в воздух. Отважные воздухоплаватели и отчаянные авантюристы устанавливали захватывающие рекорды высоты полета и его продолжительности. Естественно, довольно скоро многим пришла в голову дерзкая идея обогнуть на шаре Землю. Но на практике это оказалось далеко не так легко, как представлялось изначально.
Вокруг света на воздушном шаре, 1 эп. Альпы
Вокруг света на воздушном шаре, 2 эп. Кения
Вокруг света на воздушном шаре, 3 эп. Монголия
Вокруг света на воздушном шаре, 4 эп. Шри-Ланка
Вокруг света на воздушном шаре, 5 эп. Венесуэла
Тип релиза: HDTV 1080i
Контейнер: TS
Видео: H264; 1920x1080 (16:9); 25.000 fps; ~11.1 Mbps
Аудио: MPEG Audio 48000Hz stereo 192 Кбит/сек

MediaInfo

GeneralID : 1 (0x1)Complete name : Q:\ДИСК-1\Вокруг света на воздушном шаре_1080i_[RUTRACKER.ORG]_by kuzmichm2196\Вокруг света на воздушном шаре, 1 эп. Альпы.tsFormat : MPEG-TSFile size : 4.34 GiBDuration : 52mn 3sOverall bit rate mode : VariableOverall bit rate : 11.9 Mbps
VideoID : 2152 (0x868)Menu ID : 1 (0x1)Format : AVCFormat/Info : Advanced Video CodecFormat profile : High@L4.0Format settings, CABAC : YesFormat settings, ReFrames : 4 framesCodec ID : 27Duration : 52mn 3sBit rate : 11.1 MbpsWidth : 1 920 pixelsHeight : 1 080 pixelsDisplay aspect ratio : 16:9Frame rate : 25.000 fpsStandard : ComponentColor space : YUVChroma subsampling : 4:2:0Bit depth : 8 bitsScan type : InterlacedBits/(Pixel*Frame) : 0.215Stream size : 4.05 GiB (93%)Color primaries : BT.709Transfer characteristics : BT.709Matrix coefficients : BT.709
AudioID : 2155 (0x86B)Menu ID : 1 (0x1)Format : MPEG AudioFormat version : Version 1Format profile : Layer 2Codec ID : 3Duration : 52mn 3sBit rate mode : ConstantBit rate : 192 KbpsChannel(s) : 2 channelsSampling rate : 48.0 KHzCompression mode : LossyDelay relative to video : -120msStream size : 71.5 MiB (2%)Language : Russian

Скриншоты

[Профиль] [ЛС]
Кто просматривает тему:

Форум Тема Автор Размер
Cборники 70х-80х-90х (Ретро) (POP Retro) VA - Вокруг любви. Незабываемые имена 70-80. Часть 1 - 2002, MP3, 320 kbps Magnat 141 MB
Cборники 70х-80х-90х (Ретро) (POP Retro) VA - Вокруг любви. Незабываемые имена 70-80. Часть 3 - 2002, MP3, 320 kbps Magnat 1.01 GB
Путешествия и приключения Вокруг света за 80 дней (Верн Жюль) [2013, Приключения, аудиокнига, MP3, 96 kbps, Николай Рихтер] Magnat 361 MB
Фильмы (HD Rips | 720p, 1080p) Вокруг света за 80 дней / Around the World in 80 Days (2004) BDRip 720p sergej644 3.98 GB
Фильмы (HD Rips | 720p, 1080p) Вокруг света за 80 дней / Around the World in 80 Days (2004) BDRip-AVC от MediaClub | D, P2 Белочка 4.18 GB
Фильмы (HD Rips | 720p, 1080p) Вокруг света за 80 дней / Around the World in Eighty Days (1956) WEB-DL 720p | P Russian Mafia 6.3 GB
Отечественные мультфильмы Вокруг света поневоле / Навколо свiту мимоволi (Давид Черкасский) [1972, рисованный мультфильм, WEBRip] original + sub TorrentFilm 259 MB
Разное Вокруг света №1 (январь) (2016) PDF достали все 104 MB
Показать сообщения:    

Текущее время: Сегодня 18:57

Часовой пояс: GMT



Вы не можете начинать темы
Вы не можете отвечать на сообщения
Вы не можете редактировать свои сообщения
Вы не можете удалять свои сообщения
Вы не можете голосовать в опросах
Вы не можете прикреплять файлы к сообщениям
Вы не можете скачивать файлы