Вокруг света за 80 дней / Around the World in 80 Days (2004) BDRip-AVC от MediaClub | D, P2

 
Автор Сообщение

Белочка ®

Пол:

Стаж: 5 лет 1 месяц

Сообщений: 2089



Награды: 1 (Подробнее)

Girls (Количество: 1)
Торрент-статистика

Создавать темы 12-Окт-2014 10:59

[Цитировать]

Информация о фильме
Название: Вокруг света за 80 дней
Оригинальное название: Around the World in 80 Days
Год выхода: 2004
Жанр: Боевик, мелодрама, комедия, приключения, семейный
Режиссер: Фрэнк Корачи
В ролях: Джеки Чан, Стив Кугэн, Роберт Файф, Джим Бродбент, Иэн МакНис, Дэвид Райалл, Роджер Хэммонд, Адам Годли, Карен Мок, Ховард Купер, Дэниэл Хинчклифф, Вольфрам Тюфель, Том Штраусс, Кит Уэст, Юэн Бремнер, Патрик Пару, Сесиль Де Франс, Перри Блейк, Микаэль Юн, Ева Эбнер, Ричард Брэнсон, Гийом Сиро, Мейси Грэй, Бен Поснер, Михаэль Хёнхер, Джордж Инчи, Арнольд Шварценеггер, Уиратэм Норман Вичаираксакуй
О фильме: Эксцентричный лондонский изобретатель Филеас Фогг раскрыл тайны полетов, электричества и многие другие, но общество не принимает его, считая сумасшедшим. Фоггу очень хочется, чтобы к нему относились серьезно, и он заключает необычное пари с лордом Келвином, главой Королевской академии наук: он берется совершить путешествие вокруг земного шара не более чем за 80 дней. Вместе со своим лакеем Паспарту и жаждущей острых ощущений французской художницей Моник Фогг пускается в безумную, захватывающую кругосветную гонку по суше, морю и воздуху. Во время головокружительного путешествия наши герои попадают в самые экзотические уголки планеты. В пути их ждут многочисленные приключения и препятствия…

Страна: США, Германия, Ирландия, Великобритания
Студия: 80 Days Productions Ltd., Babelsberg Film GmbH, Spanknyce Films, Walden Media, Walt Disney Pictures
Продолжительность: 02:00:16
Перевод: Дублированный, профессиональный двухголосый
Файл
Кодек: MPEG-4 AVC
Качество: BDRip-AVC
Видео: 3500 Кбит/с, 1024x436, 23.976 кадр/с
Звук:
Аудио #1: Русский (AC3, 6 ch, 384 Кбит/с) / Дублированный (Невафильм)
Аудио #2: Русский (AC3, 6 ch, 448 Кбит/с) / Профессиональный двухголосый (Tycoon-Studio)
Аудио #3: Украинский (AC3, 2 ch, 192 Кбит/с) / Профессиональный многоголосый
Аудио #4: Английский (AC3, 6 ch, 448 Кбит/с)
Субтитры: Русские (R5), русские (Tycoon-Studio), английские
Семпл

MediaInfo:

Общее
Уникальный идентификатор : 232791357474186713230793411439592351111 (0xAF21FC0FC1649A5188F2747F631A2587)
Полное имя : D:Мои РипыVokrug.Sveta.Za.80.Dnej.2004.BDRip.AVC.MediaClub.mkv
Формат : Matroska
Версия формата : Version 4 / Version 2
Размер файла : 4,18 Гбайт
Продолжительность : 2 ч. 0 м.
Общий поток : 4975 Кбит/сек
Название фильма : = MediaClub = rip by krakatuq
Дата кодирования : UTC 2014-10-11 15:27:33
Программа кодирования : mkvmerge v6.6.0 ('The Edge Of The In Between') built on Dec 1 2013 17:55:00
Библиотека кодирования : libebml v1.3.0 + libmatroska v1.4.1
Видео
Идентификатор : 1
Формат : AVC
Формат/Информация : Advanced Video Codec
Профиль формата : High@L4.1
Параметр CABAC формата : Да
Параметр ReFrames формата : 9 кадров
Идентификатор кодека : V_MPEG4/ISO/AVC
Продолжительность : 2 ч. 0 м.
Битрейт : 3500 Кбит/сек
Ширина : 1024 пикселя
Высота : 436 пикселей
Соотношение сторон : 2,35:1
Режим частоты кадров : Постоянный
Частота кадров : 23,976 кадра/сек
Цветовое пространство : YUV
Субдискретизация насыщенности : 4:2:0
Битовая глубина : 8 бит
Тип развёртки : Прогрессивная
Бит/(Пиксели*Кадры) : 0.327
Размер потока : 2,86 Гбайт (68%)
Заголовок : Vokrug.Sveta.Za.80.Dnej.2004.BDRip.AVC.MediaClub
Библиотека кодирования : x264 core 142 r2409+42 04be48a tMod [8-bit@4:2:0 X86]
Настройки программы : cabac=1 / ref=9 / deblock=1:-2:-2 / analyse=0x3:0x133 / me=umh / subme=11 / psy=1 / fade_compensate=0.00 / psy_rd=1.00:0.15 / mixed_ref=1 / me_range=32 / chroma_me=1 / trellis=2 / 8x8dct=1 / cqm=0 / deadzone=21,11 / fast_pskip=0 / chroma_qp_offset=-3 / threads=3 / lookahead_threads=1 / sliced_threads=0 / nr=0 / decimate=0 / interlaced=0 / bluray_compat=0 / constrained_intra=0 / fgo=0 / bframes=8 / b_pyramid=2 / b_adapt=2 / b_bias=0 / direct=3 / weightb=1 / open_gop=0 / weightp=2 / keyint=240 / keyint_min=23 / scenecut=40 / intra_refresh=0 / rc=2pass / mbtree=0 / bitrate=3500 / ratetol=1.0 / qcomp=0.60 / qpmin=0:0:0 / qpmax=69:69:69 / qpstep=4 / cplxblur=20.0 / qblur=0.5 / ip_ratio=1.40 / pb_ratio=1.30 / aq=1:1.00 / aq-sensitivity=10.00 / aq-factor=1.00:1.00:1.00 / aq2=0 / aq3=0
Язык : English
Default : Да
Forced : Нет
Аудио #1
Идентификатор : 2
Формат : AC-3
Формат/Информация : Audio Coding 3
Расширение режима : CM (complete main)
Параметр Endianness формата : Big
Идентификатор кодека : A_AC3
Продолжительность : 2 ч. 0 м.
Вид битрейта : Постоянный
Битрейт : 384 Кбит/сек
Каналы : 6 каналов
Расположение каналов : Front: L C R, Side: L R, LFE
Частота : 48,0 КГц
Битовая глубина : 16 бит
Метод сжатия : С потерями
Размер потока : 330 Мбайт (8%)
Заголовок : TRACK_01_DUB_RUS
Язык : Russian
Default : Да
Forced : Да
Аудио #2
Идентификатор : 3
Формат : AC-3
Формат/Информация : Audio Coding 3
Расширение режима : CM (complete main)
Параметр Endianness формата : Big
Идентификатор кодека : A_AC3
Продолжительность : 2 ч. 0 м.
Вид битрейта : Постоянный
Битрейт : 448 Кбит/сек
Каналы : 6 каналов
Расположение каналов : Front: L C R, Side: L R, LFE
Частота : 48,0 КГц
Битовая глубина : 16 бит
Метод сжатия : С потерями
Размер потока : 385 Мбайт (9%)
Заголовок : TRACK_02_DVO_RUS
Язык : Russian
Default : Нет
Forced : Нет
Аудио #3
Идентификатор : 4
Формат : AC-3
Формат/Информация : Audio Coding 3
Расширение режима : CM (complete main)
Параметр Endianness формата : Big
Идентификатор кодека : A_AC3
Продолжительность : 2 ч. 0 м.
Вид битрейта : Постоянный
Битрейт : 192 Кбит/сек
Каналы : 2 канала
Расположение каналов : Front: L R
Частота : 48,0 КГц
Битовая глубина : 16 бит
Метод сжатия : С потерями
Размер потока : 165 Мбайт (4%)
Заголовок : TRACK_03_MVO_UKR
Язык : Ukrainian
Default : Нет
Forced : Нет
Аудио #4
Идентификатор : 5
Формат : AC-3
Формат/Информация : Audio Coding 3
Расширение режима : CM (complete main)
Параметр Endianness формата : Big
Идентификатор кодека : A_AC3
Продолжительность : 2 ч. 0 м.
Вид битрейта : Постоянный
Битрейт : 448 Кбит/сек
Каналы : 6 каналов
Расположение каналов : Front: L C R, Side: L R, LFE
Частота : 48,0 КГц
Битовая глубина : 16 бит
Метод сжатия : С потерями
Размер потока : 385 Мбайт (9%)
Заголовок : TRACK_04_ORIGINAL_ENG
Язык : English
Default : Нет
Forced : Нет
Текст #1
Идентификатор : 6
Формат : UTF-8
Идентификатор кодека : S_TEXT/UTF8
Идентификатор кодека/Информация : UTF-8 Plain Text
Заголовок : TEXT_01_SUB_RUS_R5
Язык : Russian
Default : Нет
Forced : Нет
Текст #2
Идентификатор : 7
Формат : UTF-8
Идентификатор кодека : S_TEXT/UTF8
Идентификатор кодека/Информация : UTF-8 Plain Text
Заголовок : TEXT_02_SUB_RUS_Tycoon-Studio
Язык : Russian
Default : Нет
Forced : Нет
Текст #3
Идентификатор : 8
Формат : UTF-8
Идентификатор кодека : S_TEXT/UTF8
Идентификатор кодека/Информация : UTF-8 Plain Text
Заголовок : TEXT_03_SUB_ENG
Язык : English
Default : Да
Forced : Нет
Меню
00:00:00.000 : en:Chapter 01
00:03:32.712 : en:Chapter 02
00:07:47.508 : en:Chapter 03
00:10:18.743 : en:Chapter 04
00:13:17.046 : en:Chapter 05
00:19:22.161 : en:Chapter 06
00:22:54.748 : en:Chapter 07
00:30:26.658 : en:Chapter 08
00:36:40.698 : en:Chapter 09
00:43:13.966 : en:Chapter 10
00:50:17.097 : en:Chapter 11
00:51:30.629 : en:Chapter 12
01:00:21.200 : en:Chapter 13
01:06:51.257 : en:Chapter 14
01:09:38.465 : en:Chapter 15
01:17:11.460 : en:Chapter 16
01:19:53.205 : en:Chapter 17
01:25:17.153 : en:Chapter 18
01:28:58.374 : en:Chapter 19
01:37:41.854 : en:Chapter 20
01:41:19.698 : en:Chapter 21
01:42:36.525 : en:Chapter 22
01:49:59.092 : en:Chapter 23
01:53:59.707 : en:Chapter 24
02:00:15.875 : en:Chapter 25
x264 log
x264 [info]: frame I:2125 Avg QP:16.71 size: 96630
x264 [info]: frame P:40597 Avg QP:19.09 size: 32914
x264 [info]: frame B:130292 Avg QP:20.73 size: 12398

Скриншоты

Релиз от:
Автор рипа:
[Профиль] [ЛС]
Кто просматривает тему:

Форум Тема Автор Размер
Cборники 70х-80х-90х (Ретро) (POP Retro) VA - Вокруг любви. Незабываемые имена 70-80. Часть 1 - 2002, MP3, 320 kbps Magnat 141 MB
Cборники 70х-80х-90х (Ретро) (POP Retro) VA - Вокруг любви. Незабываемые имена 70-80. Часть 3 - 2002, MP3, 320 kbps Magnat 1.01 GB
Путешествия и приключения Вокруг света за 80 дней (Верн Жюль) [2013, Приключения, аудиокнига, MP3, 96 kbps, Николай Рихтер] Magnat 361 MB
Фильмы (HD Rips | 720p, 1080p) Вокруг света за 80 дней / Around the World in 80 Days (2004) BDRip 720p sergej644 3.98 GB
Фильмы (HD Rips | 720p, 1080p) Вокруг света за 80 дней / Around the World in Eighty Days (1956) WEB-DL 720p | P Russian Mafia 6.3 GB
Документальные HD Вокруг света на воздушном шаре / The World\'s greantest balloon adventures (Allie Dunnington, Phil Dunnington) [2012, Документальный, HDTV 1080i] TorrentFilm 21.64 GB
Отечественные мультфильмы Вокруг света поневоле / Навколо свiту мимоволi (Давид Черкасский) [1972, рисованный мультфильм, WEBRip] original + sub TorrentFilm 259 MB
Разное Вокруг света №1 (январь) (2016) PDF достали все 104 MB
Показать сообщения:    

Текущее время: Сегодня 14:35

Часовой пояс: GMT



Вы не можете начинать темы
Вы не можете отвечать на сообщения
Вы не можете редактировать свои сообщения
Вы не можете удалять свои сообщения
Вы не можете голосовать в опросах
Вы не можете прикреплять файлы к сообщениям
Вы не можете скачивать файлы