Вокзал / Terminus (2015) WEB-DL 1080p | L1

 
Автор Сообщение

BOSS ®

Пол:

Стаж: 2 года 1 месяц

Сообщений: 3718

Откуда: ODESSA



Награды: 20 (Подробнее)

Mega Releaser 3 (Количество: 1) Top Keeper 1 (Количество: 1) Top Seeder 4 (Количество: 1)
Торрент-статистика

Создавать темы 30-Янв-2016 06:22

[Цитировать]

Информация о фильме
Название: Вокзал
Оригинальное название: Terminus
Год выхода: 2015
Жанр: Фантастика
Режиссер: Марк Ферми
В ролях: Jai Koutrae, Кендра Эпплтон, Тодд Ласанс, Брен Фостер, Брендан Клиркин, Vincent Andriano, Уильям Эммонс, Кэтерин Хикс, Стив Ле Маркванд, John Manning
О фильме:
Оказавшись, в результате несчастного случая, на грани между жизнью и смертью, Дэвид Чемберлен делает беспрецедентное открытие, которое предопределит не только судьбу его семьи, но и судьбу всего человечества...

Выпущено: Австралия / Eclectik Vision, Maddfilms, Storm Alley Entertainment, Storm Vision Entertainment
Продолжительность: 01:33:40
Перевод: Любительское (одноголосое) [datynet], перевод [Куценко]

Файл
Формат: MKV
Качество: WEB-DL 1080p
Видео: MPEG-4 AVC, 4382 Кбит/с, 1920x792
Звук: Русский (AC3, 6 ch, 448 Кбит/с), английский (AC3, 6 ch, 384 Кбит/с)
Субтитры: Английские

MI

General
Unique ID : 197880581807278903460517399918235374653 (0x94DE69EE3E0E77ACA76B84A0794C543D)
Complete name : D:Terminus.2015.1080p.WEB-DL.DD5.1.H264-FGT (1).mkv
Format : Matroska
Format version : Version 4 / Version 2
File size : 3.48 GiB
Duration : 1h 33mn
Overall bit rate : 5 319 Kbps
Movie name : Terminus.2015.1080p.WEB-DL.DD5.1.H264-FGT
Encoded date : UTC 2016-01-29 13:26:09
Writing application : mkvmerge v8.5.1 ('Where you lead I will follow') 64bit
Writing library : libebml v1.3.3 + libmatroska v1.4.4
DURATION : 01:33:40.256000000
NUMBER_OF_FRAMES : 175633
NUMBER_OF_BYTES : 314734336
_STATISTICS_WRITING_APP : mkvmerge v8.5.1 ('Where you lead I will follow') 64bit
_STATISTICS_WRITING_DATE_UT : 2016-01-29 13:26:09
_STATISTICS_TAGS : BPS DURATION NUMBER_OF_FRAMES NUMBER_OF_BYTES
Video
ID : 1
Format : AVC
Format/Info : Advanced Video Codec
Format profile : High@L4
Format settings, CABAC : Yes
Format settings, ReFrames : 5 frames
Codec ID : V_MPEG4/ISO/AVC
Duration : 1h 33mn
Bit rate : 4 382 Kbps
Width : 1 920 pixels
Height : 792 pixels
Display aspect ratio : 2.40:1
Frame rate mode : Constant
Frame rate : 24.000 fps
Color space : YUV
Chroma subsampling : 4:2:0
Bit depth : 8 bits
Scan type : Progressive
Bits/(Pixel*Frame) : 0.120
Stream size : 2.87 GiB (82%)
Language : English
Default : Yes
Forced : No
Color range : Limited
Color primaries : BT.709
Transfer characteristics : BT.709
Matrix coefficients : BT.709
Audio #1
ID : 2
Format : AC-3
Format/Info : Audio Coding 3
Mode extension : CM (complete main)
Format settings, Endianness : Big
Codec ID : A_AC3
Duration : 1h 33mn
Bit rate mode : Constant
Bit rate : 448 Kbps
Channel(s) : 6 channels
Channel positions : Front: L C R, Side: L R, LFE
Sampling rate : 48.0 KHz
Compression mode : Lossy
Stream size : 300 MiB (8%)
Language : Russian
Default : Yes
Forced : Yes
Audio #2
ID : 3
Format : AC-3
Format/Info : Audio Coding 3
Mode extension : CM (complete main)
Format settings, Endianness : Big
Codec ID : A_AC3
Duration : 1h 33mn
Bit rate mode : Constant
Bit rate : 384 Kbps
Channel(s) : 6 channels
Channel positions : Front: L C R, Side: L R, LFE
Sampling rate : 48.0 KHz
Compression mode : Lossy
Stream size : 257 MiB (7%)
Language : English
Default : No
Forced : No
Text
ID : 4
Format : UTF-8
Codec ID : S_TEXT/UTF8
Codec ID/Info : UTF-8 Plain Text
Language : English
Default : No
Forced : No
Menu
00:00:00.000 : en:Opening Sequence
00:05:57.000 : en:Jesus Dad
00:10:46.000 : en:Guess you Forgot
00:17:23.000 : en:Looking for my Dad
00:22:34.000 : en:Not Hungry
00:29:20.000 : en:Messy Face
00:33:50.000 : en:What's This?
00:40:08.000 : en:Get some water
00:46:32.000 : en:So many Pies
00:52:03.000 : en:What to do
01:00:15.000 : en:Need a favor
01:05:49.000 : en:Brought a Friend
01:12:04.000 : en:Wounded in Combat
01:17:10.000 : en:Its Okay
01:22:10.000 : en:Come on Dad
01:26:55.000 : en:End Credits

Скриншоты

[Профиль] [ЛС]
Показать сообщения:    

Текущее время: Сегодня 12:35

Часовой пояс: GMT



Вы не можете начинать темы
Вы не можете отвечать на сообщения
Вы не можете редактировать свои сообщения
Вы не можете удалять свои сообщения
Вы не можете голосовать в опросах
Вы не можете прикреплять файлы к сообщениям
Вы не можете скачивать файлы