Вокзал / Terminus (2015) WEB-DLRip-AVC | L1

 
Автор Сообщение

достали все ®

Пол:

Стаж: 1 год 8 месяцев

Сообщений: 6571



Награды: 12 (Подробнее)

За внесенный вклад в развитие сайта (Количество: 1) Mega Seeder 4 (Количество: 1) Mega Seeder 1 (Количество: 1)
Торрент-статистика

Создавать темы 30-Янв-2016 04:01

[Цитировать]

Информация о фильме
Название: Вокзал
Оригинальное название: Terminus
Год выхода: 2015
Жанр: Фантастика
Режиссер: Marc Furmie
В ролях: Jai Koutrae, Кендра Эпплтон, Тодд Ласанс, Брен Фостер, Брендан Клиркин, Vincent Andriano, Уильям Эммонс, Кэтерин Хикс, Стив Ле Маркванд, John Manning
О фильме:
Оказавшись, в результате несчастного случая, на грани между жизнью и смертью, Дэвид Чемберлен делает беспрецедентное открытие, которое предопределит не только судьбу его семьи, но и судьбу всего человечества...

Выпущено: Австралия / Eclectik Vision, Maddfilms, Storm Alley Entertainment, Storm Vision Entertainment
Продолжительность: 01:33:40
Перевод: Любительское (одноголосое) [datynet], перевод [Куценко]
Файл
Формат: MKV
Качество: WEB-DLRip-AVC
Видео: MPEG-4 AVC, 1540 Кбит/с, 1024x416
Аудио: Русский, английский (AC3, 6 ch, 384 Кбит/с)
Субтитры: Английские
Семпл

MI

Общее
Уникальный идентификатор : 192627971024176606856471828694541739719 (0x90EACC397D01457992DD1EE28A1F26C7)
Полное имя : E:Раздача-BDRipVokzal.2015.WEB-DLRip-AVC_by_grab777.mkv
Формат : Matroska
Версия формата : Version 2
Размер файла : 1,51 Гбайт
Продолжительность : 1 ч. 33 м.
Общий поток : 2307 Кбит/сек
Название фильма : Вокзал / Terminus.2015.WEB-DLRip-AVC_by_grab777
Дата кодирования : UTC 2016-01-29 14:08:29
Программа кодирования : mkvmerge v5.8.0 ('No Sleep / Pillow') built on Sep 2 2012 15:37:04
Библиотека кодирования : XviD4PSP 6.0 / 54.29.105
Обложка : Yes / Yes / Yes / Yes
Видео
Идентификатор : 1
Формат : AVC
Формат/Информация : Advanced Video Codec
Профиль формата : High@L4.1
Параметр CABAC формата : Да
Параметр ReFrames формата : 7 кадров
Идентификатор кодека : V_MPEG4/ISO/AVC
Продолжительность : 1 ч. 33 м.
Битрейт : 1540 Кбит/сек
Ширина : 1024 пикселя
Высота : 416 пикселей
Соотношение сторон : 2,40:1
Соотношение сторон в оригинале : 2,40:1
Режим частоты кадров : Постоянный
Частота кадров : 24,000 кадра/сек
Цветовое пространство : YUV
Субдискретизация насыщенности : 4:2:0
Битовая глубина : 8 бит
Тип развёртки : Прогрессивная
Бит/(Пиксели*Кадры) : 0.151
Размер потока : 1001 Мбайт (65%)
Заголовок : Rip_by_grab777
Библиотека кодирования : x264 core 128 r2216M 198a7ea
Настройки программы : cabac=1 / ref=8 / deblock=1:2:2 / analyse=0x3:0x133 / me=umh / subme=9 / psy=1 / psy_rd=1.00:0.20 / mixed_ref=1 / me_range=24 / chroma_me=1 / trellis=2 / 8x8dct=1 / cqm=0 / deadzone=21,11 / fast_pskip=1 / chroma_qp_offset=-3 / threads=4 / lookahead_threads=1 / sliced_threads=0 / nr=0 / decimate=1 / interlaced=0 / bluray_compat=0 / constrained_intra=0 / bframes=8 / b_pyramid=1 / b_adapt=2 / b_bias=3 / direct=3 / weightb=1 / open_gop=0 / weightp=2 / keyint=240 / keyint_min=24 / scenecut=40 / intra_refresh=0 / rc_lookahead=40 / rc=2pass / mbtree=1 / bitrate=1540 / ratetol=1.0 / qcomp=0.60 / qpmin=10 / qpmax=51 / qpstep=4 / cplxblur=20.0 / qblur=0.5 / ip_ratio=1.40 / aq=1:1.00
Язык : English
Default : Да
Forced : Нет
Аудио #1
Идентификатор : 2
Формат : AC-3
Формат/Информация : Audio Coding 3
Расширение режима : CM (complete main)
Параметр Endianness формата : Big
Идентификатор кодека : A_AC3
Продолжительность : 1 ч. 33 м.
Вид битрейта : Постоянный
Битрейт : 384 Кбит/сек
Каналы : 6 каналов
Расположение каналов : Front: L C R, Side: L R, LFE
Частота : 48,0 КГц
Битовая глубина : 16 бит
Метод сжатия : С потерями
Задержка видео : 27 мс.
Размер потока : 257 Мбайт (17%)
Заголовок : AVO [datynet]
Язык : Russian
Default : Да
Forced : Нет
Аудио #2
Идентификатор : 3
Формат : AC-3
Формат/Информация : Audio Coding 3
Расширение режима : CM (complete main)
Параметр Endianness формата : Big
Идентификатор кодека : A_AC3
Продолжительность : 1 ч. 33 м.
Вид битрейта : Постоянный
Битрейт : 384 Кбит/сек
Каналы : 6 каналов
Расположение каналов : Front: L C R, Side: L R, LFE
Частота : 48,0 КГц
Битовая глубина : 16 бит
Метод сжатия : С потерями
Размер потока : 257 Мбайт (17%)
Заголовок : Terminus.2015.1080p.WEB-DL.DD5.1.H264-FGT
Язык : English
Default : Нет
Forced : Нет
Текст
Идентификатор : 4
Формат : UTF-8
Идентификатор кодека : S_TEXT/UTF8
Идентификатор кодека/Информация : UTF-8 Plain Text
Язык : English
Default : Нет
Forced : Нет
Меню
00:00:00.000 : en:Opening Sequence
00:05:57.000 : en:Jesus Dad
00:10:46.000 : en:Guess you Forgot
00:17:23.000 : en:Looking for my Dad
00:22:34.000 : en:Not Hungry
00:29:20.000 : en:Messy Face
00:33:50.000 : en:What's This?
00:40:08.000 : en:Get some water
00:46:32.000 : en:So many Pies
00:52:03.000 : en:What to do
01:00:15.000 : en:Need a favor
01:05:49.000 : en:Brought a Friend
01:12:04.000 : en:Wounded in Combat
01:17:10.000 : en:Its Okay
01:22:10.000 : en:Come on Dad
01:26:55.000 : en:End Credits

Скриншоты

Релиз от:
[Профиль] [ЛС]
Показать сообщения:    

Текущее время: Сегодня 16:35

Часовой пояс: GMT



Вы не можете начинать темы
Вы не можете отвечать на сообщения
Вы не можете редактировать свои сообщения
Вы не можете удалять свои сообщения
Вы не можете голосовать в опросах
Вы не можете прикреплять файлы к сообщениям
Вы не можете скачивать файлы