Вокзал для двоих (Эльдар Рязанов) [1982, Мелодрама, трагикомедия] DVDRip

 
Автор Сообщение

BOSS ®

Пол:

Стаж: 2 года 8 месяцев

Сообщений: 5869

Откуда: ODESSA



Награды: 20 (Подробнее)

Top Releaser 2 (Количество: 1) Top Seeder 2 (Количество: 1) Top Releaser 4 (Количество: 1)
Торрент-статистика

Создавать темы 30-Апр-2015 19:32

[Цитировать]

Информация о фильме
Название: Вокзал для двоих
Год выхода: 1982
Жанр: Мелодрама, трагикомедия
Режиссер: Эльдар Рязанов
В ролях: Олег Басилашвили, Людмила Гурченко, Никита Михалков, Александр Ширвиндт, Нонна Мордюкова, Татьяна Догилева, Анастасия Вознесенская, Михаил Кононов, Виктор Борцов, Алла Будницкая, Ольга Волкова, Татьяна Игнатова, Алексей Коняшин, Владимир Мышкин, Нина Палладина, Александр Пятков, Эльдар Рязанов, Станислав Садальский, Анатолий Скорякин, Анна Фроловцева, Темур Юнусов, Раиса Этуш
О фильме: Город Заступинск, где-то между Москвой и Алма-Атой, ближе к Воронежу. Вокзальная буфетчица Вера и пианист Платон Рябинин из Москвы познакомились при весьма непривлекательных обстоятельствах. В результате Вера потеряла жениха с дынями, но нашла любимого, который вскоре должен отбыть в отдаленные места, чтобы нести наказание за несовершенное преступление...
Доп.информация: Исходник DVD9 "Крупный План" полная реставрация

Страна: СССР
Студия: Мосфильм
Продолжительность: 02:12:39
Перевод: Не требуется (оригинальный)
Файл
Формат: avi
Качество: DVDRip (DVD9)
Видео: XviD, 704x528, 25fps, 1883kbps
Аудио: AC3 Dolby Digital, 6ch, 48000Hz, 448kbps

MediaInfo

General
Complete name : Vokzal.Dla.Dvoih.1982.O.DVDRip.2100.MediaClub.CurHaJI.avi
Format : AVI
Format/Info : Audio Video Interleave
Format profile : OpenDML
File size : 2.17 GiB
Duration : 2h 12mn
Overall bit rate : 2 344 Kbps
Movie name : Vokzal.Dla.Dvoih.1982.O.DVDRip.2100.MediaClub.CurHaJI
Writing application : Lavf53.13.0
Writing library : VirtualDub build 35491/release
Video
ID : 0
Format : MPEG-4 Visual
Format profile : Advanced Simple@L5
Format settings, BVOP : 2
Format settings, QPel : No
Format settings, GMC : No warppoints
Format settings, Matrix : Custom
Codec ID : XVID
Codec ID/Hint : XviD
Duration : 2h 12mn
Bit rate : 1 883 Kbps
Width : 704 pixels
Height : 528 pixels
Display aspect ratio : 4:3
Frame rate : 25.000 fps
Color space : YUV
Chroma subsampling : 4:2:0
Bit depth : 8 bits
Scan type : Progressive
Compression mode : Lossy
Bits/(Pixel*Frame) : 0.203
Stream size : 1.75 GiB (80%)
Writing library : XviD 64
Audio
ID : 1
Format : AC-3
Format/Info : Audio Coding 3
Mode extension : CM (complete main)
Format settings, Endianness : Big
Codec ID : 2000
Duration : 2h 12mn
Bit rate mode : Constant
Bit rate : 448 Kbps
Channel(s) : 6 channels
Channel positions : Front: L C R, Side: L R, LFE
Sampling rate : 48.0 KHz
Bit depth : 16 bits
Compression mode : Lossy
Stream size : 425 MiB (19%)
Alignment : Aligned on interleaves
Interleave, duration : 40 ms (1.00 video frame)
Interleave, preload duration : 512 ms

Интересно

Каннский кинофестиваль, 1983 год
Номинации (1):
Золотая пальмовая ветвь
Участие в Основной конкурсной программе (Эльдар Рязанов)
Всесоюзный XVI кинофестиваль в Ленинграде, 1983 год
Победитель (2):
Приз за женскую роль (Людмила Гурченко)
Приз за вклад в развитие советской кинокомедии (Эльдар Рязанов)
Всесоюзный кинофестиваль в Риге, 1983 год
Победитель (2):
Приз за лучшую женскую роль (Людмила Гурченко)
Приз за лучшую режиссуру (Эльдар Рязанов)
Ассоциация критиков "Варшавская сирена". 1984 год
Победитель (1):
Приз критики лучшему зарубежному фильму года в Польше (Эльдар Рязанов)
Опрос журнала «Советский экран». 1983 год
Победитель (2):
Лучший фильм года (Эльдар Рязанов)
Лучшая актриса года (Людмила Гурченко)
Участие в кинофестивалях:
1983 — МКФ в Каннах (Франция)
2000 — Фестиваль русского кино в Онфлёре (Франция)
2004 — КФ русских фильмов «Юниверкино» в Нанте (Франция)
2007 — Русское кино в кинотеатре «Arlequin» в Париже (Франция)
2009 — КФ «Спутник над Польшей» в Варшаве (Польша)
2010 — Фестиваль «Русское возрождение» в Сиднее (Австралия)
2012 — КФ «Спутник над Польшей» в Варшаве (Польша)

Скриншоты

[Профиль] [ЛС]

Создавать темы 06-Авг-2015 22:00 (спустя 3 месяца 6 дней)

Топик был перенесен из форума Кино СССР в форум Кино СССР
sergej644
 
Кто просматривает тему:

Форум Тема Автор Размер
Фильмы 2015 года Вокзал / Terminus (2015) WEB-DLRip | L1 достали все 1.44 GB
Показать сообщения:    

Текущее время: Сегодня 22:51

Часовой пояс: GMT



Вы не можете начинать темы
Вы не можете отвечать на сообщения
Вы не можете редактировать свои сообщения
Вы не можете удалять свои сообщения
Вы не можете голосовать в опросах
Вы не можете прикреплять файлы к сообщениям
Вы не можете скачивать файлы