Вой / Howl (2015) HDRip | L1

 
Автор Сообщение

достали все ®

Пол:

Стаж: 1 год 8 месяцев

Сообщений: 6571



Награды: 12 (Подробнее)

Mega Releaser 3 (Количество: 1) Top Releaser 4 (Количество: 1) Mega Seeder 3 (Количество: 1)
Торрент-статистика

Создавать темы 13-Ноя-2015 06:57

[Цитировать]

Информация о фильме
Название: Вой
Оригинальное название: Howl
Год выхода: 2015
Жанр: ужасы
Режиссер: Пол Хайет
В ролях: Эдвард Спелирс, Холли Уэстон, Эллиот Кауэн, Амит Шах, Сэм Гиттинс, Шона МакДональд, Дункан Престон, Аня Марсон, Рози Дэй, Кэлвин Дин
О фильме:
После того, как зверь напал на пассажиров поезда, им нужно объединиться, что бы дожить до утра.

Страна: Великобритания
Студия: Starchild Pictures
Продолжительность: 01:32:24
Перевод: Любительский (одноголосый закадровый) [Paul Bunyan]
Файл
Кодек:
Качество: HDRip
Видео: 656x272, 994 kbps, 24 fps, 0,232 Bits/(Pixel*Frame)
Звук: MP3, 48 kHz, 2 ch, 128 kbps
Субтитры: Нет

MI

General
Complete name : D:Howl.2015.HDRip.745._by_Bathory.avi
Format : AVI
Format/Info : Audio Video Interleave
File size : 745 MiB
Duration : 1h 32mn
Overall bit rate : 1 128 Kbps
Video
ID : 0
Format : MPEG-4 Visual
Format profile : Advanced Simple@L5
Format settings, BVOP : 1
Format settings, QPel : No
Format settings, GMC : No warppoints
Format settings, Matrix : Custom
Codec ID : XVID
Codec ID/Hint : XviD
Duration : 1h 32mn
Bit rate : 994 Kbps
Width : 656 pixels
Height : 272 pixels
Display aspect ratio : 2.40:1
Frame rate : 24.000 fps
Color space : YUV
Chroma subsampling : 4:2:0
Bit depth : 8 bits
Scan type : Progressive
Compression mode : Lossy
Bits/(Pixel*Frame) : 0.232
Stream size : 657 MiB (88%)
Writing library : XviD 67
Audio
ID : 1
Format : MPEG Audio
Format version : Version 1
Format profile : Layer 3
Mode : Joint stereo
Mode extension : MS Stereo
Codec ID : 55
Codec ID/Hint : MP3
Duration : 1h 32mn
Bit rate mode : Constant
Bit rate : 128 Kbps
Channel(s) : 2 channels
Sampling rate : 48.0 KHz
Compression mode : Lossy
Stream size : 84.6 MiB (11%)
Alignment : Aligned on interleaves
Interleave, duration : 167 ms (4.00 video frames)
Interleave, preload duration : 216 ms
Title : Howl.2015.BDRip.1080p.HDR - [1] Russian_new
Writing library : LAME3.99r
Encoding settings : -m j -V 4 -q 2 -lowpass 17 -b 128

Скриншоты

Релиз от:
Автор рипа: _Bathory_
[Профиль] [ЛС]
Показать сообщения:    

Текущее время: Сегодня 22:30

Часовой пояс: GMT



Вы не можете начинать темы
Вы не можете отвечать на сообщения
Вы не можете редактировать свои сообщения
Вы не можете удалять свои сообщения
Вы не можете голосовать в опросах
Вы не можете прикреплять файлы к сообщениям
Вы не можете скачивать файлы