Война / War (Филлип Дж. Этвелл / Phillip G. Atwell) [2007, США, Боевик, триллер, криминал, BDRip] [OPEN MATTE] Dub

 
Автор Сообщение

TorrentFilm ®

Пол:

Стаж: 2 года

Сообщений: 7741



Награды: Нет

Торрент-статистика

Создавать темы 09-Апр-2015 00:03

[Цитировать]

Война / War
«Месть как абсолютное оружие»
- Год выпуска: 2007
Страна: США, Канада / Current Entertainment
Жанр: боевик, триллер, криминал
Продолжительность: 01:42:53
Перевод: Профессиональный (полное дублирование) BD RUS
Cубтитры: нет-Режиссер:
Филлип Дж. Этвелл / Phillip G. Atwell-В ролях:
Джет Ли (Rogue), Джейсон Стэйтем (Crawford), Джон Лоун (Chang), Девон Аоки (Kira), Луис Гусман (Benny), Сол Рубинек (Dr. Sherman), Рё Исибаси (Shiro), Санг Кенг (Goi), Мэтью Ст. Патрик (Wick), Надин Веласкес (Maria), Андреа Рот (Jenny Crawford), Марк Чэн (Wu Ti), Кейн Косуги (Temple Garden Warrior)-Описание:
В мире, которым правит страх, только правосудие спасает жизни. На счету агента ФБР Кроуфорда и его напарника немало обезвреженных бандитов. Но справедливость и закон оказались бессильны, когда одержимый убийца объявил им войну. С этого момента жизнь Кроуфорда превращается в бесконечную игру со смертью, захватывающую и жестокую. Игру, где жизнь не стоит ничего, а бывшие друзья становятся заклятыми врагами.-Релиз групп | | IMDB | КиноПоиск | Сэмпл |-Качество: BDRip [Blu-ray Disc | 1080p | BLUEBIRD]
Формат: AVI
Видео: 704x400 (1.76:1), 24.000 fps, XviD build 73 ~1634 kbps avg, 0.24 bit/pixel
Аудио: 48 kHz, AC3 Dolby Digital, 3/2 (L,C,R,l,r) + LFE ch, ~384.00 kbps avg
-

Скриншоты

MediaInfo

General
Complete name                            : D:\Voina_2007_BDRip_[OPEN_MATTE]_by_Dalemake.avi
Format                                   : AVI
Format/Info                              : Audio Video Interleave
File size                                : 1.46 GiB
Duration                                 : 1h 42mn
Overall bit rate                         : 2 028 Kbps
Writing application                      : VirtualDubMod 1.5.10.3 | www.virtualdub-fr.org || (build 2550/release)
Writing library                          : VirtualDubMod build 2550/release
Video
ID                                       : 0
Format                                   : MPEG-4 Visual
Format profile                           : Advanced Simple@L5
Format settings, BVOP                    : 1
Format settings, QPel                    : No
Format settings, GMC                     : No warppoints
Format settings, Matrix                  : Custom
Codec ID                                 : XVID
Codec ID/Hint                            : XviD
Duration                                 : 1h 42mn
Bit rate                                 : 1 635 Kbps
Width                                    : 704 pixels
Height                                   : 400 pixels
Display aspect ratio                     : 16:9
Frame rate                               : 24.000 fps
Color space                              : YUV
Chroma subsampling                       : 4:2:0
Bit depth                                : 8 bits
Scan type                                : Progressive
Compression mode                         : Lossy
Bits/(Pixel*Frame)                       : 0.242
Stream size                              : 1.18 GiB (81%)
Writing library                          : XviD 73
Audio
ID                                       : 1
Format                                   : AC-3
Format/Info                              : Audio Coding 3
Mode extension                           : CM (complete main)
Format settings, Endianness              : Big
Codec ID                                 : 2000
Duration                                 : 1h 42mn
Bit rate mode                            : Constant
Bit rate                                 : 384 Kbps
Channel(s)                               : 6 channels
Channel positions                        : Front: L C R, Side: L R, LFE
Sampling rate                            : 48.0 KHz
Bit depth                                : 16 bits
Compression mode                         : Lossy
Stream size                              : 283 MiB (19%)
Alignment                                : Split accross interleaves
Interleave, duration                     : 42 ms (1.00 video frame)
Interleave, preload duration             : 500 ms

Сравнение исходников

http://screenshotcomparison.com/comparison/120212-
-
[Профиль] [ЛС]

Создавать темы 06-Авг-2015 22:37 (спустя 3 месяца 27 дней)

Топик был перенесен из форума Фильмы до 2014 года в форум Фильмы до 2012 года
sergej644
 
Кто просматривает тему:

Форум Тема Автор Размер
Rock (Рок) Lumen - Всегда 17 - всегда война (Live) - 2015, MP3, 320 kbps достали все 151 MB
Документальные HD 3D шпионы во Второй мировой войне / 3D Spies of WWII. Destroying Hitler\'s Top Secret Rockets (Тим Данн / Tim Dunn) [2011, Документальный, война, история, HDTVRip 720p] TorrentFilm 1.25 GB
National Geographic National Geographic: Апокалипсис: Первая мировая война / Apocalypse: World War I [01-05 из 05] (2014) HDTVRip sergej644 3.22 GB
Документальные HD NG. Суперсооружения Третьего рейха (2 сезон, 6 серия из 6) / Nazi Megastructures (Megastructures: Nazi Mega Weapons) - 2 [2014, Документальный, война, история, HDTVRip 720p] TorrentFilm 1.31 GB
PBS PBS: Суперсооружения Третьего рейха (2 сезон, 1 серия из 6) / Nazi Megastructures (Megastructures: Nazi Mega Weapons) - 2 [2014, Документальный, война, история, HDTVRip 720p] TorrentFilm 1.73 GB
Документальные HD RT. Тайная война / Geheimer Krieg [2013, документальный, HDTVRip 1080i] TorrentFilm 952 MB
Программы [Читалки] Вечная Война v1.0 [Android 2.0+, RUS] TorrentFilm 2 MB
Фантастика и фэнтези Александр Шакилов - Остроги: Война зомби [Книга-3] (2014) MP3 sergej644 482 MB
Показать сообщения:    

Текущее время: Сегодня 04:20

Часовой пояс: GMT



Вы не можете начинать темы
Вы не можете отвечать на сообщения
Вы не можете редактировать свои сообщения
Вы не можете удалять свои сообщения
Вы не можете голосовать в опросах
Вы не можете прикреплять файлы к сообщениям
Вы не можете скачивать файлы