Война цветов / Tajja (2006) BDRip 720р | L1

 
Автор Сообщение

Russian Mafia ®

Пол:

Стаж: 1 год 8 месяцев

Сообщений: 4256



Награды: 10 (Подробнее)

Top Releaser 5 (Количество: 1) Mega Seeder 1 (Количество: 1) Mega Seeder 5 (Количество: 1)
Торрент-статистика

Создавать темы 21-Июл-2016 16:15

[Цитировать]

Война цветов / Tazza: The High Rollers / Tajja
Страна: Южная Корея
Производство: Sidus Pictures
Год выпуска: 2006
Жанр: комедия, криминал
Продолжительность: 02:20:18
Режиссер: Чхве Дон-хун
Авторы сценария: Чхве Дон-хун, Хо Ён-ман
В ролях: Чо Сын-у, Пэк Юн-щик, Ким Хе-су, Ю Хэ-джин, Ким Ын-су, Ким Сан-хо, Ким Юн-сок, Чу Джин-мо, Ким Гён-ик, Ли Су-гён
Описание: Го-ни потерял все свои сбережения и деньги, после того, как его обманули профессиональные карточные игроки. Чтобы вернуть деньги, Го-ни начинает учиться у одного из лучших игроков в стране, господина Пхёна. Он становится известным, путешествует по стране в поисках игр. Мадам Чон, которая руководит проведением подпольных игр, начинает проявлять интерес к Го-ни, и он соглашается с ней работать...

Перевод: Любительский (одноголосый, закадровый) | den904
Субтитры: русские, английские-Качество: BDRip 720р
Формат: MKV
Видео кодек: AVC
Аудио кодек: AС3
Видео: 1280x544 (2.35:1), 23.976 fps, MPEG-4 AVC ~4 294 kbps
Аудио №1: 48.0 kHz, AC3 Dolby Digital, 2/0 (L,R) ch, ~320 kbps | RUS / den904
Аудио №2: 48.0 kHz, AC3 Dolby Digital, 3/2 (L,C,R,l,r) + LFE ch, ~448 kbps avg | KOR
Формат субтитров: UTF-8 Plain Text
Дата премьеры (мир): 28 сентября 2006

Media Info

General
Уникальный идентификатор : 240612323028407172113172374576409394747 (0xB5043F6F396CCFC2A15691ED20D4BE3B)
Полное имя : Война цветов.2006.BDRip.720p.mkv
Формат : Matroska
Версия формата : Version 4 / Version 2
Размер файла : 4,96 Гбайт
Длительность : 2 ч. 20 м.
Общий поток : 5064 Кбит/сек
Дата кодирования : UTC 2016-07-20 02:13:05
Программа кодирования : mkvmerge v8.2.0 ('World of Adventure') 64bit
Библиотека кодирования : libebml v1.3.1 + libmatroska v1.4.2
Видео
Идентификатор : 1
Формат : AVC
Формат/Информация : Advanced Video Кодек
Профиль формата : High@L4.1
Параметр CABAC формата : Да
Параметр ReFrames формата : 9 кадров
Идентификатор кодека : V_MPEG4/ISO/AVC
Длительность : 2 ч. 20 м.
Битрейт : 4294 Кбит/сек
Ширина : 1280 пикселей
Высота : 544 пикселя
Соотношение сторон : 2,35:1
Режим частоты кадров : Постоянный
Частота кадров : 23,976 (24000/1001) кадра/сек
Цветовое пространство : YUV
Субдискретизация насыщенности : 4:2:0
Битовая глубина : 8 бит
Тип развёртки : Прогрессивная
Бит/(Пиксели*Кадры) : 0.257
Размер потока : 4,21 Гбайт (85%)
Библиотека кодирования : x264 core 146 r2538 121396c
Настройки программы : cabac=1 / ref=9 / deblock=1:-1:-1 / analyse=0x3:0x113 / me=umh / subme=10 / psy=1 / psy_rd=1.00:0.15 / mixed_ref=1 / me_range=32 / chroma_me=1 / trellis=2 / 8x8dct=1 / cqm=0 / deadzone=21,11 / fast_pskip=1 / chroma_qp_offset=-3 / threads=6 / lookahead_threads=1 / sliced_threads=0 / nr=0 / decimate=1 / interlaced=0 / bluray_compat=0 / constrained_intra=0 / bframes=8 / b_pyramid=2 / b_adapt=2 / b_bias=0 / direct=1 / weightb=1 / open_gop=0 / weightp=2 / keyint=230 / keyint_min=23 / scenecut=40 / intra_refresh=0 / rc_lookahead=40 / rc=crf / mbtree=0 / crf=19.0 / qcomp=0.60 / qpmin=0 / qpmax=69 / qpstep=4 / vbv_maxrate=40000 / vbv_bufsize=50000 / crf_max=0.0 / nal_hrd=none / filler=0 / ip_ratio=1.40 / pb_ratio=1.30 / aq=1:1.00
Язык : Korean
Default : Да
Forced : Нет
Аудио #1
Идентификатор : 2
Формат : AC-3
Формат/Информация : Audio Coding 3
Расширение режима : CM (complete main)
Параметр Endianness формата : Big
Идентификатор кодека : A_AC3
Длительность : 2 ч. 20 м.
Вид битрейта : Постоянный
Битрейт : 320 Кбит/сек
Каналы : 2 канала
Расположение каналов : Front: L R
Частота : 48,0 КГц
Частота кадров : 31,250 кадров/сек (1536 spf)
Метод сжатия : С потерями
Размер потока : 321 Мбайт (6%)
Заголовок : любительский одноголосый
Язык : Russian
Default : Да
Forced : Нет
Аудио #2
Идентификатор : 3
Формат : AC-3
Формат/Информация : Audio Coding 3
Расширение режима : CM (complete main)
Параметр Endianness формата : Big
Идентификатор кодека : A_AC3
Длительность : 2 ч. 20 м.
Вид битрейта : Постоянный
Битрейт : 448 Кбит/сек
Каналы : 6 каналов
Расположение каналов : Front: L C R, Side: L R, LFE
Частота : 48,0 КГц
Частота кадров : 31,250 кадров/сек (1536 spf)
Метод сжатия : С потерями
Размер потока : 450 Мбайт (9%)
Заголовок : original
Язык : Korean
Default : Нет
Forced : Нет
Текст #1
Идентификатор : 4
Формат : UTF-8
Идентификатор кодека : S_TEXT/UTF8
Идентификатор кодека/Информация : UTF-8 Plain Text
Длительность : 2 ч. 16 м.
Битрейт : 82 бит/сек
Count of elements : 1820
Размер потока : 82,2 Кбайт (0%)
Заголовок : русские
Язык : Russian
Default : Нет
Forced : Нет
Текст #2
Идентификатор : 5
Формат : UTF-8
Идентификатор кодека : S_TEXT/UTF8
Идентификатор кодека/Информация : UTF-8 Plain Text
Длительность : 2 ч. 15 м.
Битрейт : 44 бит/сек
Count of elements : 1940
Размер потока : 43,8 Кбайт (0%)
Заголовок : английские
Язык : English
Default : Нет
Forced : Нет

Скриншоты

[Профиль] [ЛС]
Кто просматривает тему:

Форум Тема Автор Размер
Rock (Рок) Lumen - Всегда 17 - всегда война (Live) - 2015, MP3, 320 kbps достали все 151 MB
Документальные HD 3D шпионы во Второй мировой войне / 3D Spies of WWII. Destroying Hitler\'s Top Secret Rockets (Тим Данн / Tim Dunn) [2011, Документальный, война, история, HDTVRip 720p] TorrentFilm 1.25 GB
National Geographic National Geographic: Апокалипсис: Первая мировая война / Apocalypse: World War I [01-05 из 05] (2014) HDTVRip sergej644 3.22 GB
Документальные HD NG. Суперсооружения Третьего рейха (2 сезон, 6 серия из 6) / Nazi Megastructures (Megastructures: Nazi Mega Weapons) - 2 [2014, Документальный, война, история, HDTVRip 720p] TorrentFilm 1.31 GB
PBS PBS: Суперсооружения Третьего рейха (2 сезон, 1 серия из 6) / Nazi Megastructures (Megastructures: Nazi Mega Weapons) - 2 [2014, Документальный, война, история, HDTVRip 720p] TorrentFilm 1.73 GB
Документальные HD RT. Тайная война / Geheimer Krieg [2013, документальный, HDTVRip 1080i] TorrentFilm 952 MB
Программы [Читалки] Вечная Война v1.0 [Android 2.0+, RUS] TorrentFilm 2 MB
Фантастика и фэнтези Александр Шакилов - Остроги: Война зомби [Книга-3] (2014) MP3 sergej644 482 MB
Показать сообщения:    

Текущее время: Сегодня 06:10

Часовой пояс: GMT



Вы не можете начинать темы
Вы не можете отвечать на сообщения
Вы не можете редактировать свои сообщения
Вы не можете удалять свои сообщения
Вы не можете голосовать в опросах
Вы не можете прикреплять файлы к сообщениям
Вы не можете скачивать файлы