Война Священная (Роман Новолокин) [2015, Документальный, HDTV 720p]

 
Автор Сообщение

TorrentFilm ®

Пол:

Стаж: 2 года

Сообщений: 7741



Награды: Нет

Торрент-статистика

Создавать темы 10-Май-2015 00:03

[Цитировать]

Война Священная- Год выпуска: 2015
Страна: Россия
Студия: Первый Канал HD
Жанр: Документальный
Продолжительность: 0:51:38
Продюсеры: Андрей Сычев, Олег Вольнов
Автор: Татьяна Сорокина-Арт
Режиссер: Роман Новолокин-Описание: Парадоксально, но именно война перевернула отношение власти к церкви. Именно в годы войны церковь была признана, а религия фактически узаконена в советском государстве. В нашем фильме – истории людей, которые пришли к вере, пережив ужасы войны.-Автор рипа: lrn
Автор записи: riper.am
Сэмпл: sendfile-Тип релиза: HDTV 720p
Контейнер: MKV
Видео: 1280x720 (16:9), 25,000 fps, H264, ~4000 kbps avg, ~0.174 bit/pixel
Аудио: 48 kHz, AC3 Dolby Digital, 2/0 (L,R) ch, ~192.00 kbps avg-

MediaInfo

GeneralUnique ID : 252651858942471138653439526644773124994 (0xBE12FA626B066B5B9BBE9AACFE597B82)Complete name : E:\uTorrent.Temp\Temp\Vojna.Svjashhennaja.2015.HDTV.720p.x264-lrn.mkvFormat : MatroskaFormat version : Version 4 / Version 2File size : 1.51 GiBDuration : 51mn 38sOverall bit rate : 4 195 KbpsMovie name : Vojna.Svjashhennaja.2015.HDTV.720p.x264-lrnEncoded date : UTC 2010-02-22 21:41:31Writing application : mkvmerge v5.9.0 ('On The Loose') built on Dec 9 2012 15:37:01Writing library : libebml v1.3.0 + libmatroska v1.4.0DURATION : 00:51:38.720000000NUMBER_OF_FRAMES : 77468NUMBER_OF_BYTES : 1549861683_STATISTICS_WRITING_APP : mkvmerge v7.7.0 ('Six Voices') 32bit built on Feb 28 2015 23:23:00_STATISTICS_WRITING_DATE_UT : 2015-05-06 12:16:38_STATISTICS_TAGS : BPS DURATION NUMBER_OF_FRAMES NUMBER_OF_BYTES
VideoID : 1Format : AVCFormat/Info : Advanced Video CodecFormat profile : High@L4.1Format settings, CABAC : YesFormat settings, ReFrames : 8 framesCodec ID : V_MPEG4/ISO/AVCDuration : 51mn 38sBit rate : 4 000 KbpsWidth : 1 280 pixelsHeight : 720 pixelsDisplay aspect ratio : 16:9Frame rate mode : ConstantFrame rate : 25.000 fpsColor space : YUVChroma subsampling : 4:2:0Bit depth : 8 bitsScan type : ProgressiveBits/(Pixel*Frame) : 0.174Stream size : 1.41 GiB (93%)Writing library : x264 core 146 r2538 121396cEncoding settings : cabac=1 / ref=8 / deblock=1:-3:-3 / analyse=0x3:0x133 / me=umh / subme=9 / psy=1 / psy_rd=1.00:0.00 / mixed_ref=1 / me_range=32 / chroma_me=1 / trellis=2 / 8x8dct=1 / cqm=0 / deadzone=21,11 / fast_pskip=1 / chroma_qp_offset=-2 / threads=12 / lookahead_threads=2 / sliced_threads=0 / nr=0 / decimate=1 / interlaced=0 / bluray_compat=0 / constrained_intra=0 / bframes=8 / b_pyramid=2 / b_adapt=2 / b_bias=0 / direct=3 / weightb=1 / open_gop=0 / weightp=2 / keyint=250 / keyint_min=25 / scenecut=40 / intra_refresh=0 / rc_lookahead=50 / rc=2pass / mbtree=1 / bitrate=4000 / ratetol=1.0 / qcomp=0.60 / qpmin=0 / qpmax=69 / qpstep=4 / cplxblur=20.0 / qblur=0.5 / vbv_maxrate=62500 / vbv_bufsize=78125 / nal_hrd=none / filler=0 / ip_ratio=1.40 / aq=1:1.00Default : YesForced : No
AudioID : 2Format : AC-3Format/Info : Audio Coding 3Mode extension : CM (complete main)Format settings, Endianness : BigCodec ID : A_AC3Duration : 51mn 38sBit rate mode : ConstantBit rate : 192 KbpsChannel(s) : 2 channelsChannel positions : Front: L RSampling rate : 48.0 KHzCompression mode : LossyStream size : 70.9 MiB (5%)Language : RussianDefault : YesForced : No

x264 log

raw [info]: 1280x720p 1:1 @ 25/1 fps (cfr)x264 [info]: using SAR=1/1x264 [info]: using cpu capabilities: MMX2 SSE2Fast SSSE3 SSE4.2 AVXx264 [info]: profile High, level 4.1x264 [info]: frame I:628 Avg QP:14.43 size:144037x264 [info]: frame P:20511 Avg QP:17.49 size: 44834x264 [info]: frame B:56329 Avg QP:20.53 size: 9583x264 [info]: consecutive B-frames: 2.4% 4.6% 5.8% 72.1% 6.0% 7.0% 1.1% 0.8% 0.1%x264 [info]: mb I I16..4: 5.5% 70.3% 24.2%x264 [info]: mb P I16..4: 1.7% 7.5% 0.9% P16..4: 44.1% 21.2% 15.1% 0.9% 0.3% skip: 8.3%x264 [info]: mb B I16..4: 0.2% 0.5% 0.1% B16..8: 33.2% 7.4% 1.9% direct: 7.6% skip:49.3% L0:38.5% L1:43.4% BI:18.1%x264 [info]: 8x8 transform intra:72.3% inter:61.2%x264 [info]: direct mvs spatial:98.2% temporal:1.8%x264 [info]: coded y,uvDC,uvAC intra: 71.4% 67.7% 41.0% inter: 23.3% 22.3% 2.0%x264 [info]: i16 v,h,dc,p: 34% 18% 8% 40%x264 [info]: i8 v,h,dc,ddl,ddr,vr,hd,vl,hu: 16% 12% 11% 7% 10% 11% 10% 10% 13%x264 [info]: i4 v,h,dc,ddl,ddr,vr,hd,vl,hu: 14% 12% 6% 8% 11% 11% 11% 10% 17%x264 [info]: i8c dc,h,v,p: 44% 23% 20% 13%x264 [info]: Weighted P-Frames: Y:8.6% UV:4.1%x264 [info]: ref P L0: 53.4% 12.3% 15.9% 5.3% 4.6% 3.2% 3.1% 2.0% 0.3% 0.0%x264 [info]: ref B L0: 81.7% 10.0% 3.6% 1.9% 1.4% 0.9% 0.5%x264 [info]: ref B L1: 96.0% 4.0%x264 [info]: kb/s:4001.29encoded 77468 frames, 16.40 fps, 4001.29 kb/s

Скриншоты

-
[Профиль] [ЛС]
Кто просматривает тему:

Форум Тема Автор Размер
Rock (Рок) Lumen - Всегда 17 - всегда война (Live) - 2015, MP3, 320 kbps достали все 151 MB
Документальные HD 3D шпионы во Второй мировой войне / 3D Spies of WWII. Destroying Hitler\'s Top Secret Rockets (Тим Данн / Tim Dunn) [2011, Документальный, война, история, HDTVRip 720p] TorrentFilm 1.25 GB
National Geographic National Geographic: Апокалипсис: Первая мировая война / Apocalypse: World War I [01-05 из 05] (2014) HDTVRip sergej644 3.22 GB
Документальные HD NG. Суперсооружения Третьего рейха (2 сезон, 6 серия из 6) / Nazi Megastructures (Megastructures: Nazi Mega Weapons) - 2 [2014, Документальный, война, история, HDTVRip 720p] TorrentFilm 1.31 GB
PBS PBS: Суперсооружения Третьего рейха (2 сезон, 1 серия из 6) / Nazi Megastructures (Megastructures: Nazi Mega Weapons) - 2 [2014, Документальный, война, история, HDTVRip 720p] TorrentFilm 1.73 GB
Документальные HD RT. Тайная война / Geheimer Krieg [2013, документальный, HDTVRip 1080i] TorrentFilm 952 MB
Программы [Читалки] Вечная Война v1.0 [Android 2.0+, RUS] TorrentFilm 2 MB
Фантастика и фэнтези Александр Шакилов - Остроги: Война зомби [Книга-3] (2014) MP3 sergej644 482 MB
Показать сообщения:    

Текущее время: Сегодня 06:16

Часовой пояс: GMT



Вы не можете начинать темы
Вы не можете отвечать на сообщения
Вы не можете редактировать свои сообщения
Вы не можете удалять свои сообщения
Вы не можете голосовать в опросах
Вы не можете прикреплять файлы к сообщениям
Вы не можете скачивать файлы