Война миров Z / World War Z (2013) BDRip 720p от R.G. HD-Films | 60 fps | D

 
Автор Сообщение

sergej644 ®

Пол:

Стаж: 4 года 11 месяцев

Сообщений: 6041

Откуда: Soviet Union



Награды: Нет

Торрент-статистика

Создавать темы 29-Сен-2014 18:47

[Цитировать]

--Война миров Z / World War Z
-Название: Война миров Z
Оригинальное название: World War Z
Год выпуска: 2013
Страна: США
Жанр: ужасы, фантастика, боевик, триллер, приключения
Продолжительность: 02:03:03
Перевод: Дубляж+ Альтернативный дубляж на вставки
Субтитры: русские (Форсированные), русские (Полные), английские (Форсированные), английские (Полные)-Режиссер: Марк Форстер / Marc Forster-В ролях: Брэд Питт (Gerry Lane), Мирей Инос (Karin Lane), Даниэла Картес (Segen), Джеймс Бэдж Дэйл (Captain Speke), Люди Букен (Jurgen Warmbrunn), Мэттью Фокс (Parajumper), Фана Мокоэна (Thierry Umutoni), Дэвид Морс (Ex-CIA Agent), Элиес Габел (Andrew Fassbach), Питер Капальди (W.H.O. Doctor), Пьерфранческо Фавино (W.H.O. Doctor), Рут Негга (W.H.O. Doctor)-Описание:
Сотрудник ООН Джерри Лэйн наперегонки со временем пытается остановить заражение, способное полностью истребить человечество.-Рейтинг

imdb.com: 7.10 (321 842)
MPAA: PG-13 - Детям до 13 лет просмотр не желателен-Автор рипа:Tiberiumsun69
-Качество: BDRip 720p / 60 FPS
Формат: MKV
Видео кодек: AVC
Аудио кодек:AC3
✦ Видео: 1280x536, 4445 kbps, 59,940 fps
✦ Аудио 1 Русский: 5.1/ 48 kHz/ 640 kbps/ AC3, Дубляж + альтернативный дубляж на вставки
✦ Аудио 2 Английский: 5.1/ 48 kHz/ 640 kbps/ AC3
Навигация по главам: есть
-

MI

General
Unique ID : 238149951465553382362853388270618480203 (0xB32A0324A9CE41F6BF34CA412CDB0E4B)
Название : A:720p 60fpsВойна миров Z 720p 60fps.mkv
Формат : Matroska
Формат version : Version 4 / Version 2
Размер файла : 5.02 GiB
Длительность : 2h 3mn
Общий Битрейт : 5 842 Kbps
Encoded date : UTC 2014-08-17 01:46:50
Создано приложением : mkvmerge v6.9.1 ('Blue Panther') 64bit built on Apr 18 2014 18:23:38
Writing library : libebml v1.3.0 + libmatroska v1.4.1
Video
ID : 1
Формат : AVC
Формат/Info : Advanced Video Кодек
Формат profile : High@L4.1
Формат настройки, CABAC : Yes
Формат настройки, ReFrames : 9 frames
Кодек ID : V_MPEG4/ISO/AVC
Длительность : 2h 3mn
Битрейт : 4 446 Kbps
Width : 1 280 пикселей
Высота : 536 пикселей
Соотношение кадра : 2.40:1
Частота кадров : 59.940 fps
Цветопередача : YUV
Chroma subsampling : 4:2:0
Разрядность : 8 bits
Тип сканирования : Progressive
Bits/(Pixel*Frame) : 0.108
Размер потока : 3.82 GiB (76%)
Writing library : x264 core 130 r2273 b3065e6
Encoding настройки : cabac=1 / ref=9 / deblock=1:-1:-1 / analyse=0x3:0 / me=umh / subme=9 / psy=1 / psy_rd=1.00:0.10 / mixed_ref=1 / me_range=42 / chroma_me=0 / trellis=2 / 8x8dct=1 / cqm=0 / deadzone=21,11 / fast_pskip=0 / chroma_qp_offset=-3 / threads=12 / lookahead_threads=1 / sliced_threads=0 / nr=0 / decimate=0 / interlaced=0 / bluray_compat=0 / constrained_intra=0 / bframes=6 / b_pyramid=2 / b_adapt=2 / b_bias=0 / direct=1 / weightb=1 / open_gop=0 / weightp=2 / keyint=594 / keyint_min=59 / scenecut=40 / intra_refresh=0 / rc=crf / mbtree=0 / crf=15.0 / qcomp=0.60 / qpmin=0 / qpmax=69 / qpstep=4 / ip_ratio=1.40 / pb_ratio=1.30 / aq=0
Язык : English
Default : Yes
Forced : No
Audio #1
ID : 2
Формат : AC-3
Формат/Info : Audio Coding 3
Расширение режима : CM (complete main)
Кодек ID : A_AC3
Длительность : 2h 3mn
Битрейт mode : Constant
Битрейт : 640 Kbps
Каналы(s) : 6 каналов
Каналы positions : Front: L C R, Side: L R, LFE
Частота : 48.0 KHz
Разрядность : 16 bits
Режим сжатия : Lossy
Размер потока : 563 MiB (11%)
Default : Yes
Forced : No
Audio #2
ID : 3
Формат : AC-3
Формат/Info : Audio Coding 3
Расширение режима : CM (complete main)
Кодек ID : A_AC3
Длительность : 2h 3mn
Битрейт mode : Constant
Битрейт : 640 Kbps
Каналы(s) : 6 каналов
Каналы positions : Front: L C R, Side: L R, LFE
Частота : 48.0 KHz
Разрядность : 16 bits
Режим сжатия : Lossy
Размер потока : 563 MiB (11%)
Default : No
Forced : No
Text #1
ID : 4
Формат : UTF-8
Кодек ID : S_TEXT/UTF8
Кодек ID/Info : UTF-8 Plain Text
Title : Форсированные
Язык : Russian
Default : Yes
Forced : No
Text #2
ID : 5
Формат : UTF-8
Кодек ID : S_TEXT/UTF8
Кодек ID/Info : UTF-8 Plain Text
Title : Полные
Язык : Russian
Default : No
Forced : No
Text #3
ID : 6
Формат : UTF-8
Кодек ID : S_TEXT/UTF8
Кодек ID/Info : UTF-8 Plain Text
Title : Forced
Язык : English
Default : No
Forced : No
Text #4
ID : 7
Формат : UTF-8
Кодек ID : S_TEXT/UTF8
Кодек ID/Info : UTF-8 Plain Text
Title : Full
Язык : English
Default : No
Forced : No
Menu
00:00:00.000 : :Chapter 01
00:05:05.179 : :Chapter 02
00:13:53.999 : :Chapter 03
00:22:43.195 : :Chapter 04
00:29:46.034 : :Chapter 05
00:35:21.494 : :Chapter 06
00:42:23.457 : :Chapter 07
00:52:37.946 : :Chapter 08
00:58:53.821 : :Chapter 09
01:07:18.868 : :Chapter 10
01:15:11.757 : :Chapter 11
01:24:02.037 : :Chapter 12
01:29:08.801 : :Chapter 13
01:34:50.518 : :Chapter 14
01:43:45.469 : :Chapter 15
01:52:17.981 : :Chapter 16
01:55:51.653 : :Chapter 17

Скриншоты

[Профиль] [ЛС]
Кто просматривает тему:

Форум Тема Автор Размер
Rock (Рок) Lumen - Всегда 17 - всегда война (Live) - 2015, MP3, 320 kbps достали все 151 MB
Документальные HD 3D шпионы во Второй мировой войне / 3D Spies of WWII. Destroying Hitler\'s Top Secret Rockets (Тим Данн / Tim Dunn) [2011, Документальный, война, история, HDTVRip 720p] TorrentFilm 1.25 GB
National Geographic National Geographic: Апокалипсис: Первая мировая война / Apocalypse: World War I [01-05 из 05] (2014) HDTVRip sergej644 3.22 GB
Документальные HD NG. Суперсооружения Третьего рейха (2 сезон, 6 серия из 6) / Nazi Megastructures (Megastructures: Nazi Mega Weapons) - 2 [2014, Документальный, война, история, HDTVRip 720p] TorrentFilm 1.31 GB
PBS PBS: Суперсооружения Третьего рейха (2 сезон, 1 серия из 6) / Nazi Megastructures (Megastructures: Nazi Mega Weapons) - 2 [2014, Документальный, война, история, HDTVRip 720p] TorrentFilm 1.73 GB
Документальные HD RT. Тайная война / Geheimer Krieg [2013, документальный, HDTVRip 1080i] TorrentFilm 952 MB
Программы [Читалки] Вечная Война v1.0 [Android 2.0+, RUS] TorrentFilm 2 MB
Фантастика и фэнтези Александр Шакилов - Остроги: Война зомби [Книга-3] (2014) MP3 sergej644 482 MB
Показать сообщения:    

Текущее время: Сегодня 16:57

Часовой пояс: GMT



Вы не можете начинать темы
Вы не можете отвечать на сообщения
Вы не можете редактировать свои сообщения
Вы не можете удалять свои сообщения
Вы не можете голосовать в опросах
Вы не можете прикреплять файлы к сообщениям
Вы не можете скачивать файлы