Война за территорию. Львы и бегемоты / Turf War. Lions and Hippos (Вилли Стинкамп / Will Steenkamp) [2013, Документальный, HDTVRip 720p]

 
Автор Сообщение

TorrentFilm ®

Пол:

Стаж: 2 года

Сообщений: 7741



Награды: Нет

Торрент-статистика

Создавать темы 18-Июл-2015 00:06

[Цитировать]

Война за территорию. Львы и бегемоты
Turf War. Lions and Hippos


Год выпуска: 2013
Страна: ЮАР
Студия: Boksdocs Into Nature Productions
Жанр: Документальный
Канал:
Продолжительность: 00:42:18
Перевод: Профессиональный (дублированный)
Доп. инфо о переводе: Студия "Велес"
Режиссер: Вилли Стинкамп / Will Steenkamp
Описание: В сезон засухи в долине Луангвы в Африке львы охотятся на берегах реки, но голодные бегемоты не желают делить свою территорию с хищниками.
Тип релиза: HDTVRip 720p
Контейнер: MKV

Видео: MPEG-4 AVC (H.264), 1280x720 (16:9), 5000 Kbps, 25 fps, 0.217 bit/pixel
Аудио RUS: MP2, 192 Кбит/с, 48 kHz, 2 ch
Аудио ENG: MP2, 192 Кбит/с, 48 kHz, 2 ch

MediaInfo

GeneralUnique ID : 218122393428690820501747853455603867759 (0xA418D84BAA84F8A9852DE5752E85206F)Complete name : D:\Видео\Флора и фауна\Turf War Lions and Hippos HDTVRip-720p.2013.mkvFormat : MatroskaFormat version : Version 4 / Version 2File size : 1.59 GiBDuration : 42mn 18sOverall bit rate : 5 382 KbpsMovie name : HDTVRip by VicmanEncoded date : UTC 2015-07-09 17:08:17Writing application : mkvmerge v8.1.0 ('Psychedelic Postcard') 64bitWriting library : libebml v1.3.1 + libmatroska v1.4.2DURATION : 00:42:12.912000000NUMBER_OF_FRAMES : 105538NUMBER_OF_BYTES : 60789888_STATISTICS_WRITING_APP : mkvmerge v8.1.0 ('Psychedelic Postcard') 64bit_STATISTICS_WRITING_DATE_UTC : 2015-07-09 17:08:17_STATISTICS_TAGS : BPS DURATION NUMBER_OF_FRAMES NUMBER_OF_BYTES
VideoID : 1Format : AVCFormat/Info : Advanced Video CodecFormat profile : High@L4.1Format settings, CABAC : YesFormat settings, ReFrames : 8 framesCodec ID : V_MPEG4/ISO/AVCDuration : 42mn 18sBit rate : 5 000 KbpsWidth : 1 280 pixelsHeight : 720 pixelsDisplay aspect ratio : 16:9Frame rate mode : ConstantFrame rate : 25.000 fpsColor space : YUVChroma subsampling : 4:2:0Bit depth : 8 bitsScan type : ProgressiveBits/(Pixel*Frame) : 0.217Stream size : 1.45 GiB (91%)Writing library : x264 core 146 r2538 121396cEncoding settings : cabac=1 / ref=8 / deblock=1:0:0 / analyse=0x3:0x113 / me=umh / subme=9 / psy=1 / psy_rd=1.05:0.15 / mixed_ref=1 / me_range=32 / chroma_me=1 / trellis=2 / 8x8dct=1 / cqm=0 / deadzone=21,11 / fast_pskip=1 / chroma_qp_offset=-3 / threads=6 / lookahead_threads=1 / sliced_threads=0 / nr=0 / decimate=1 / interlaced=0 / bluray_compat=0 / constrained_intra=0 / bframes=7 / b_pyramid=2 / b_adapt=2 / b_bias=0 / direct=1 / weightb=1 / open_gop=0 / weightp=2 / keyint=250 / keyint_min=25 / scenecut=40 / intra_refresh=0 / rc_lookahead=60 / rc=2pass / mbtree=1 / bitrate=5000 / ratetol=1.0 / qcomp=0.60 / qpmin=0 / qpmax=69 / qpstep=4 / cplxblur=20.0 / qblur=0.5 / vbv_maxrate=14000 / vbv_bufsize=14000 / nal_hrd=none / filler=0 / ip_ratio=1.40 / aq=1:1.00Default : YesForced : No
Audio #1ID : 2Format : MPEG AudioFormat version : Version 1Format profile : Layer 2Codec ID : A_MPEG/L2Codec ID/Hint : MP2Duration : 42mn 18sBit rate mode : ConstantBit rate : 192 KbpsChannel(s) : 2 channelsSampling rate : 48.0 KHzCompression mode : LossyStream size : 58.1 MiB (4%)Title : Студия "Велес"Language : RussianDefault : YesForced : No
Audio #2ID : 3Format : MPEG AudioFormat version : Version 1Format profile : Layer 2Codec ID : A_MPEG/L2Codec ID/Hint : MP2Duration : 42mn 18sBit rate mode : ConstantBit rate : 192 KbpsChannel(s) : 2 channelsSampling rate : 48.0 KHzCompression mode : LossyStream size : 58.1 MiB (4%)Title : ОригиналLanguage : EnglishDefault : NoForced : No

Скриншоты

[Профиль] [ЛС]
Кто просматривает тему:

Форум Тема Автор Размер
Rock (Рок) Lumen - Всегда 17 - всегда война (Live) - 2015, MP3, 320 kbps достали все 151 MB
Документальные HD 3D шпионы во Второй мировой войне / 3D Spies of WWII. Destroying Hitler\'s Top Secret Rockets (Тим Данн / Tim Dunn) [2011, Документальный, война, история, HDTVRip 720p] TorrentFilm 1.25 GB
National Geographic National Geographic: Апокалипсис: Первая мировая война / Apocalypse: World War I [01-05 из 05] (2014) HDTVRip sergej644 3.22 GB
Документальные HD NG. Суперсооружения Третьего рейха (2 сезон, 6 серия из 6) / Nazi Megastructures (Megastructures: Nazi Mega Weapons) - 2 [2014, Документальный, война, история, HDTVRip 720p] TorrentFilm 1.31 GB
PBS PBS: Суперсооружения Третьего рейха (2 сезон, 1 серия из 6) / Nazi Megastructures (Megastructures: Nazi Mega Weapons) - 2 [2014, Документальный, война, история, HDTVRip 720p] TorrentFilm 1.73 GB
Документальные HD RT. Тайная война / Geheimer Krieg [2013, документальный, HDTVRip 1080i] TorrentFilm 952 MB
Программы [Читалки] Вечная Война v1.0 [Android 2.0+, RUS] TorrentFilm 2 MB
Фантастика и фэнтези Александр Шакилов - Остроги: Война зомби [Книга-3] (2014) MP3 sergej644 482 MB
Показать сообщения:    

Текущее время: Сегодня 16:55

Часовой пояс: GMT



Вы не можете начинать темы
Вы не можете отвечать на сообщения
Вы не можете редактировать свои сообщения
Вы не можете удалять свои сообщения
Вы не можете голосовать в опросах
Вы не можете прикреплять файлы к сообщениям
Вы не можете скачивать файлы