Война волков в 3Д / Wolf Warrior 3D (Ву Джин / Wu Jing) [2015, Боевик, Драма, Военный, BDrip-AVC] VO, Half OverUnder / Вертикальная анаморфная стереопара

 
Автор Сообщение

TorrentFilm ®

Пол:

Стаж: 2 года

Сообщений: 7741



Награды: Нет

Торрент-статистика

Создавать темы 11-Авг-2015 00:08

[Цитировать]

Война волков
Wolf Warrior

Год выпуска: 2015
Страна: Китай (Chunqiu Time Films)
Жанр: Боевик, Драма, Военный
Продолжительность: 01:30:04
Перевод: Любительский одноголосый закадровый - RAIM
Режиссер: Ву Джин / Wu Jing-Роли исполняли:
............ ............
Ву Джин, Скотт Эдкинс (Tom Cat), Кевин Ли (Crazy Bull), Кайл Шапиро (Monkey), Кристофер Коллинз (Cowboy), Цзыи Ден, Сона Эямбе (Driver), Сэмюэл Тивирдж (Assassin), Нань Юй, Вэньчжо Чжао
-Описание: Своенравное поведение командира Лэн Фэна, офицера спецназа, часто вызывает недовольство у вышестоящего начальства. Во время штурма тайного убежища наркоторговцев Фэн нарушает прямой приказ и спасает положение, метким выстрелом убивая наркобарона. После отбывания срока за неподчинение приказам и неповиновение, Фэна, благодаря его навыкам и храбрости, принимают в китайский элитный отряд под названием «Wolf Warrior». Пройдя вместе со своими подчинёнными ряд суровых занятий и тренировок, он, в итоге, собирает команду, которую может назвать своей собственной. Но дело принимает плохой оборот, когда во время финальной стадии учений они попадают в засаду, устроенную высококвалифицированными иностранными наёмниками во главе с Томом, поклявшимся отомстить Лэн Фэну и его людям за убийство своего бывшего работодателя. Линия фронта очерчена, и отступать или сдаваться не собирается ни одна из сторон.-Премьера (мир): 6 апреля 2015
. .
-Качество: BDRip (by Ash61)
Контейнер: MKV
Формат 3D: Half OverUnder / Вертикальная анаморфная стереопара
Порядок ракурсов: левый ракурс первый-Видео: AVC / 23,976 fps / 1920х1080p / 12.4 Mbps
Аудио:
#1 - Русский / AC3 / 48 KHz / 5.1 ch / 640 Kbps (VO - RAIM) [сведЕние в 5.1 - Ash61]
#2 - Китайский / AC3 / 48 KHz / 5.1 ch / 640 Kbps (Original - BD 3D)
Субтитры Отсутствуют

MediaInfo

General
Unique ID : 213297971589413520473294371164468657835 (0xA077B1EF32815EAFBD0862C97409BEAB)
Complete name : E:\WolfWarrior(2015)3D-halfOU(Ash61)VO-5.1.mkv
Format : Matroska
Format version : Version 2
File size : 8.76 GiB
Duration : 1h 30mn
Overall bit rate : 13.9 Mbps
Movie name : Война волков / Wolf Warrior (2015) в 3Д
Encoded date : UTC 2015-06-25 19:28:13
Writing application : mkvmerge v5.8.0 ('No Sleep / Pillow') built on Sep 2 2012 15:37:04
Writing library : libebml v1.2.3 + libmatroska v1.3.0
Video
ID : 1
Format : AVC
Format/Info : Advanced Video Codec
Format profile : High@L4.1
Format settings, CABAC : Yes
Format settings, ReFrames : 4 frames
Codec ID : V_MPEG4/ISO/AVC
Duration : 1h 30mn
Bit rate : 12.4 Mbps
Width : 1 920 pixels
Height : 1 080 pixels
Display aspect ratio : 16:9
Frame rate mode : Constant
Frame rate : 23.976 fps
Color space : YUV
Chroma subsampling : 4:2:0
Bit depth : 8 bits
Scan type : Progressive
Bits/(Pixel*Frame) : 0.249
Stream size : 7.78 GiB (89%)
Title : BDRip by Ash61
Writing library : x264 core 138 r2358 9e941d1
Encoding settings : cabac=1 / ref=4 / deblock=1:-3:-3 / analyse=0x3:0x113 / me=umh / subme=10 / psy=1 / psy_rd=1.00:0.00 / mixed_ref=1 / me_range=32 / chroma_me=1 / trellis=2 / 8x8dct=1 / cqm=0 / deadzone=21,11 / fast_pskip=1 / chroma_qp_offset=-2 / threads=12 / lookahead_threads=3 / sliced_threads=0 / nr=0 / decimate=1 / interlaced=0 / bluray_compat=0 / constrained_intra=0 / bframes=11 / b_pyramid=2 / b_adapt=2 / b_bias=0 / direct=3 / weightb=1 / open_gop=0 / weightp=2 / keyint=250 / keyint_min=23 / scenecut=40 / intra_refresh=0 / rc_lookahead=60 / rc=crf / mbtree=1 / crf=16.0 / qcomp=0.70 / qpmin=10 / qpmax=51 / qpstep=4 / vbv_maxrate=40000 / vbv_bufsize=30000 / crf_max=0.0 / nal_hrd=none / frame-packing=4 / ip_ratio=1.40 / aq=1:0.70
Language : Chinese
Default : Yes
Forced : No
Audio #1
ID : 2
Format : AC-3
Format/Info : Audio Coding 3
Mode extension : CM (complete main)
Format settings, Endianness : Big
Codec ID : A_AC3
Duration : 1h 30mn
Bit rate mode : Constant
Bit rate : 640 Kbps
Channel(s) : 6 channels
Channel positions : Front: L C R, Side: L R, LFE
Sampling rate : 48.0 KHz
Bit depth : 16 bits
Compression mode : Lossy
Stream size : 412 MiB (5%)
Title : Одноголосый закадровый - RAIM (сведЕние в 5.1 - Ash61)
Language : Russian
Default : Yes
Forced : No
Audio #2
ID : 3
Format : AC-3
Format/Info : Audio Coding 3
Mode extension : CM (complete main)
Format settings, Endianness : Big
Codec ID : A_AC3
Duration : 1h 30mn
Bit rate mode : Constant
Bit rate : 640 Kbps
Channel(s) : 6 channels
Channel positions : Front: L C R, Side: L R, LFE
Sampling rate : 48.0 KHz
Bit depth : 16 bits
Compression mode : Lossy
Stream size : 412 MiB (5%)
Title : Original - BD 3D
Language : Chinese
Default : No
Forced : No
Menu
00:00:00.000 : :1
00:06:26.678 : :2
00:11:18.261 : :3
00:16:34.160 : :4
00:22:01.278 : :5
00:29:41.029 : :6
00:37:21.990 : :7
00:45:28.225 : :8
00:52:36.612 : :9
01:01:48.371 : :10
01:09:52.647 : :11
01:23:28.003 : :12

Для оценки 3Д - Анимированные скрины















[Профиль] [ЛС]
Кто просматривает тему:

Форум Тема Автор Размер
Rock (Рок) Lumen - Всегда 17 - всегда война (Live) - 2015, MP3, 320 kbps достали все 151 MB
Документальные HD 3D шпионы во Второй мировой войне / 3D Spies of WWII. Destroying Hitler\'s Top Secret Rockets (Тим Данн / Tim Dunn) [2011, Документальный, война, история, HDTVRip 720p] TorrentFilm 1.25 GB
National Geographic National Geographic: Апокалипсис: Первая мировая война / Apocalypse: World War I [01-05 из 05] (2014) HDTVRip sergej644 3.22 GB
Документальные HD NG. Суперсооружения Третьего рейха (2 сезон, 6 серия из 6) / Nazi Megastructures (Megastructures: Nazi Mega Weapons) - 2 [2014, Документальный, война, история, HDTVRip 720p] TorrentFilm 1.31 GB
PBS PBS: Суперсооружения Третьего рейха (2 сезон, 1 серия из 6) / Nazi Megastructures (Megastructures: Nazi Mega Weapons) - 2 [2014, Документальный, война, история, HDTVRip 720p] TorrentFilm 1.73 GB
Документальные HD RT. Тайная война / Geheimer Krieg [2013, документальный, HDTVRip 1080i] TorrentFilm 952 MB
Программы [Читалки] Вечная Война v1.0 [Android 2.0+, RUS] TorrentFilm 2 MB
Фантастика и фэнтези Александр Шакилов - Остроги: Война зомби [Книга-3] (2014) MP3 sergej644 482 MB
Показать сообщения:    

Текущее время: Сегодня 03:05

Часовой пояс: GMT



Вы не можете начинать темы
Вы не можете отвечать на сообщения
Вы не можете редактировать свои сообщения
Вы не можете удалять свои сообщения
Вы не можете голосовать в опросах
Вы не можете прикреплять файлы к сообщениям
Вы не можете скачивать файлы