Воин дорог / Downstream (Филлип Ким / Phillip Kim, Нил Кинселла / Neil Kinsella, Симоне Бартезаги / Simone Bartesaghi) [2010, США, Фантастика, боевик, BDRip 1080p] MVO Sub rus + original eng

 
Автор Сообщение

Russian Mafia ®

Пол:

Стаж: 1 год 8 месяцев

Сообщений: 4253



Награды: 10 (Подробнее)

Mega Seeder 3 (Количество: 1) Top Releaser 5 (Количество: 1) Mega Seeder 1 (Количество: 1)
Торрент-статистика

Создавать темы 20-Мар-2016 06:55

[Цитировать]

Воин дорог / Downstream- Страна: США
Студия: Downstream
Жанр: Фантастика, боевик
Год выпуска: 2010
Продолжительность: 01:40:39
Перевод: Профессиональный (многоголосый закадровый) (с ДВД лицензии R5)
Cубтитры: Русские, английские
Оригинальная аудиодорожка: английский
Режиссер: Филлип Ким / Phillip Kim, Нил Кинселла / Neil Kinsella, Симоне Бартезаги / Simone Bartesaghi
В ролях: Джонатан Трент, Элизабет Робертс, Джонно Робертс, Ленни фон Долен, Мики Джонс, Фредерик Бартоломью, Мишель Мисти Лэнг, Фиона Габелманн, Грэйс С. Ренн, Брю Мюллер
Описание: Действие фильма — недалекое будущее, когда в мире заканчиваются запасы нефти и мир на грани катастрофы. Продовольствия не хватает, заболевание раком среди женщин резко возросло и их численность уменьшается. В этом хаосе и варварской среде валютой являются биотопливо, боеприпасы и люди. Герой фильма, Вез Келлер, пытается найти безопасное укрытие, о котором ходят легенды, но за это надо заплатить большую цену.-Сэмпл: http://multi-up.com/507092
Тип релиза: BDRip 1080p - BRiGHT
Перетяжка, синхронизация звука, субтитров - schumaher
Контейнер: MKV
Видео: MPEG-4 AVC, 9794 Кбит/с, 1920x1000, 23.976 кадр/с
Аудио: Русский (AC3, 6 ch, 384 Кбит/с, 48.0 KHz)
Аудио 2: Английский (DTS, 6 ch, 1536 Кбит/с, 48.0 KHz)

MediaInfo

General
Complete name : D:\Voin.dorog.2010.x264.BDRip(1080p).mkv
Format : Matroska
File size : 8.22 GiB
Duration : 1h 40mn
Overall bit rate : 11.7 Mbps
Movie name : --SCHUMAHER--
Encoded date : UTC 2011-06-13 09:33:32
Writing application : mkvmerge v4.6.0 ('Still Crazy After All These Years') сборка от Mar 10 2011 02:50:32
Writing library : libebml v1.2.0 + libmatroska v1.1.0
Video
ID : 1
Format : AVC
Format/Info : Advanced Video Codec
Format profile : High@L4.1
Format settings, CABAC : Yes
Format settings, ReFrames : 4 frames
Muxing mode : Container profile=Unknown@4.1
Codec ID : V_MPEG4/ISO/AVC
Duration : 1h 40mn
Bit rate : 9 564 Kbps
Nominal bit rate : 9 794 Kbps
Width : 1 920 pixels
Height : 1 000 pixels
Display aspect ratio : 1.920
Frame rate : 23.976 fps
Resolution : 8 bits
Colorimetry : 4:2:0
Scan type : Progressive
Bits/(Pixel*Frame) : 0.208
Stream size : 6.72 GiB (82%)
Writing library : x264 core 104 r1675 2484aa0
Encoding settings : cabac=1 / ref=4 / deblock=1:0:0 / analyse=0x3:0x133 / me=umh / subme=7 / psy=1 / psy_rd=1.00:0.15 / mixed_ref=1 / me_range=16 / chroma_me=1 / trellis=1 / 8x8dct=1 / cqm=0 / deadzone=21,11 / fast_pskip=0 / chroma_qp_offset=-3 / threads=12 / sliced_threads=0 / nr=0 / decimate=1 / interlaced=0 / constrained_intra=0 / bframes=3 / b_pyramid=2 / b_adapt=2 / b_bias=0 / direct=1 / weightb=1 / open_gop=0 / weightp=2 / keyint=250 / keyint_min=23 / scenecut=40 / intra_refresh=0 / rc_lookahead=40 / rc=2pass / mbtree=1 / bitrate=9794 / ratetol=1.0 / qcomp=0.60 / qpmin=10 / qpmax=51 / qpstep=4 / cplxblur=20.0 / qblur=0.5 / ip_ratio=1.40 / aq=1:1.00
Audio #1
ID : 2
Format : AC-3
Format/Info : Audio Coding 3
Codec ID : A_AC3
Duration : 1h 40mn
Bit rate mode : Constant
Bit rate : 384 Kbps
Channel(s) : 6 channels
Channel positions : Front: L C R, Surround: L R, LFE
Sampling rate : 48.0 KHz
Stream size : 276 MiB (3%)
Language : Russian
Audio #2
ID : 3
Format : DTS
Format/Info : Digital Theater Systems
Codec ID : A_DTS
Duration : 1h 40mn
Bit rate mode : Constant
Bit rate : 1 510 Kbps
Channel(s) : 6 channels
Channel positions : Front: L C R, Surround: L R, LFE
Sampling rate : 48.0 KHz
Resolution : 16 bits
Stream size : 1.06 GiB (13%)
Text #1
ID : 4
Format : UTF-8
Codec ID : S_TEXT/UTF8
Codec ID/Info : UTF-8 Plain Text
Language : Russian
Text #2
ID : 5
Format : UTF-8
Codec ID : S_TEXT/UTF8
Codec ID/Info : UTF-8 Plain Text

Скриншоты

[Профиль] [ЛС]
Кто просматривает тему:

Показать сообщения:    

Текущее время: Сегодня 10:31

Часовой пояс: GMT



Вы не можете начинать темы
Вы не можете отвечать на сообщения
Вы не можете редактировать свои сообщения
Вы не можете удалять свои сообщения
Вы не можете голосовать в опросах
Вы не можете прикреплять файлы к сообщениям
Вы не можете скачивать файлы