Воины-скелеты / Skeleton Warriors [S01] (1994) DVDRip | А

 
Автор Сообщение

Russian Mafia ®

Пол:

Стаж: 1 год 8 месяцев

Сообщений: 4257



Награды: 10 (Подробнее)

За внесенный вклад в развитие сайта (Количество: 1) Top Releaser 4 (Количество: 1) Top Releaser 5 (Количество: 1)
Торрент-статистика

Создавать темы 20-Сен-2016 07:21

[Цитировать]

Воины-скелеты / Skeleton Warriors
Страна: Великобритания
Производство: Graz Entertainment, Landmark Entertainment Group
Год выпуска: 1994
Сезон: 1
Жанр: мультфильм, фантастика, фэнтези, приключения
Продолжительность: 13х ~00:23:00
Режиссер: Виктор Даль Шеле
Авторы сценария: Гэри Годдард, Ту Гранороли, Стив Куден
В ролях: Джефф Беннетт, Нэйтан Карлсон, Филип Л. Кларк, Майкл Корбетт, Дженнифер Хейл, Тони Джей, Дэнни Манн, Валерий Паппас, Кевин Шон
Описание: После смeрти короля, мудрого и дoбрoго правителя дaлёкой планeты, младший брaт поддался на предательскиe уговoры коварного Барона Дарка, служившего ранее отцу, и выступил против старшего. Он помог ему завладеть половиной кристалла Звезды Света, который давал силу и энергию королевству Луменсити. После схватки Барон и его приспешники превратились в живые, неуязвимые скелеты, а братьям с сестрой пришлось бежать к дяде. После этого и начинается непримиримая борьба добра и света против сил тьмы и зла, так как обеим сторонам досталось по половине кристалла...

Перевод: Авторский (одноголосый, закадровый) | Юрий Сербин
Субтитры: нет-Качество: DVDRip
Формат: АVI
Видео кодек: DivX
Аудио кодек: АС3
Видео: 640x480 (4:3), 23.976 fps, DivX ~1 999 kbps avg
Аудио №1: 48.0 kHz, AC3 Dolby Digital, 2/0 (L,R) ch, ~192 kbps | RUS
Аудио №2: 48.0 kHz, AC3 Dolby Digital, 2/0 (L,R) ch, ~192 kbps | ENG
Дата премьеры (мир): 12 сентября 1994

Релиз от: *Sergeant_am*
Дополнительная информация: за помощь в создании релиза спасибо: Lex2085, Pickasso

Media Info

General
Полное имя : Воины-скелеты�3.Сердце и душа.avi
Формат : AVI
Формат/Информация : Audio Video Interleave
Размер файла : 395 Мбайт
Продолжительность : 23 м.
Общий поток : 2397 Кбит/сек
Программа кодирования : VirtualDubModRus 1.5.10.2 (build 2542/release)
Библиотека кодирования : VirtualDubMod build 2542/release
Видео
Идентификатор : 0
Формат : MPEG-4 Visual
Профиль формата : Advanced Simple@L5
Параметр BVOP формата : 1
Параметр QPel формата : Нет
Параметр GMC формата : Без точки перехода
Параметр матрицы формата : Default (H.263)
Идентификатор кодека : DX50
Идентификатор кодека/Подсказка : DivX 5
Продолжительность : 23 м.
Битрейт : 1999 Кбит/сек
Ширина : 640 пикселей
Высота : 480 пикселей
Соотношение сторон : 4:3
Частота кадров : 23,976 кадра/сек
Цветовое пространство : YUV
Субдискретизация насыщенности : 4:2:0
Битовая глубина : 8 бит
Тип развёртки : Прогрессивная
Метод сжатия : С потерями
Бит/(Пиксели*Кадры) : 0.271
Размер потока : 330 Мбайт (83%)
Библиотека кодирования : XviD 1.2.1 (UTC 2008-12-04)
Аудио #1
Идентификатор : 1
Формат : AC-3
Формат/Информация : Audio Coding 3
Расширение режима : CM (complete main)
Параметр Endianness формата : Big
Идентификатор кодека : 2000
Продолжительность : 23 м.
Вид битрейта : Постоянный
Битрейт : 192 Кбит/сек
Каналы : 2 канала
Расположение каналов : Front: L R
Частота : 48,0 КГц
Битовая глубина : 16 бит
Метод сжатия : С потерями
Размер потока : 31,6 Мбайт (8%)
Выравнивание : Разделение по промежуткам
Продолжительность промежутка : 42 мс. (1,00 видеокадр)
Время предзагрузки промежутка : 500 мс.
Аудио #2
Идентификатор : 2
Формат : AC-3
Формат/Информация : Audio Coding 3
Расширение режима : CM (complete main)
Параметр Endianness формата : Big
Идентификатор кодека : 2000
Продолжительность : 23 м.
Вид битрейта : Постоянный
Битрейт : 192 Кбит/сек
Каналы : 2 канала
Расположение каналов : Front: L R
Частота : 48,0 КГц
Битовая глубина : 16 бит
Метод сжатия : С потерями
Размер потока : 31,6 Мбайт (8%)
Выравнивание : Разделение по промежуткам
Продолжительность промежутка : 42 мс. (1,00 видеокадр)
Время предзагрузки промежутка : 500 мс.

Скриншоты

[Профиль] [ЛС]
Показать сообщения:    

Текущее время: Сегодня 09:11

Часовой пояс: GMT



Вы не можете начинать темы
Вы не можете отвечать на сообщения
Вы не можете редактировать свои сообщения
Вы не можете удалять свои сообщения
Вы не можете голосовать в опросах
Вы не можете прикреплять файлы к сообщениям
Вы не можете скачивать файлы