Воины бездорожья (Людмила Снигирева и Юрий Однопозов) [2015, Документальный, HDTV 1080i]

 
Автор Сообщение

TorrentFilm ®

Пол:

Стаж: 1 год 11 месяцев

Сообщений: 7741



Награды: Нет

Торрент-статистика

Создавать темы 25-Янв-2015 00:01

[Цитировать]

Воины бездорожья
Год выпуска: 2015
Страна: Россия
Студия: Первый канал
Жанр: Документальный
Продолжительность: 00:50:58
Перевод: Не требуется
Русские субтитры: нет
Режиссер: Людмила Снигирева и Юрий Однопозов
Описание: Обледеневшее лобовое стекло, сквозь которое не видно дороги. Реки, которые можно преодолеть только зимой. Лютый мороз и пронизывающий ветер. Все это – обычное дело для водителей, которые отправляются в путь по дороге Р504 "Колыма". Дальнобойщики здесь единственные, кто во время долгой сибирской зимы обеспечивает жителей Якутии и Чукотки самым необходимым. У зрителей Первого канала появилась уникальная возможность совершить удивительное и небезопасное путешествие, отправившись вместе с дальнобойщиком Василием Дьячковским по одной из самых трудных трасс планеты. Температура в этих краях опускается до минус 70, а протяженность главной магистрали востока России – более 2 000 км. Путь от Якутска до Магадана зритель увидит из кабины автопоезда. Дорогу эту начали строить еще 80 лет назад заключенные ГУЛАГа. Но она так никогда и не была закончена. Большие участки пути по-прежнему проходят по бездорожью. Поэтому ни одни водитель здесь не ответит вам на вопрос о точном времени в пути или расчетном времени прибытия. Дорога непредсказуема. Ульяна Винокурова, местная жительница – одна из живых свидетельниц строительства Колымской дороги. Она видела и помнит, как работали узники и в каких условиях прокладывали "Дорогу на костях". Благодаря этой трассе - единственной дороге в округе - она и ее односельчане имеют возможность приехать на праздник в соседний поселок Оймякон- самое холодное место планеты, где живет человек. Пассажирского транспорта на колымских дорогах нет, а для перевозки людей здесь используют высокопроходимые УАЗики –единственные грузопассажирские машины, способные справится с сибирскими морозами. Конечно, на нашем пути будут и короткие остановки. Перед очередной поездкой Василий всегда заезжает домой. Посидеть за столом "на дорожку" и поцеловать, а точнее – "понюхать на память" тех, с кем прощаешься – древняя якутская традиция. И вот мы уже в дороге. На трассе мы встретимся с такими же дальнобойщиками как Василий. Первый привал обычно делают в придорожном кафе "Куба". Его хозяин Сергей всегда накормит и советом поможет. Сейчас все обсуждают последнюю новость – грузовик перевернулся и ушел под лед. Такое здесь не редкость… Мы увидим, как водолазы службы спасения решают подобные проблемы. Андрею Дорошенко сегодня предстоит погрузиться под воду при нулевой температуре и толщине льда в два метра, его задача – рассчитать оптимальный способ подъема машины с грузом. Елизавета Ли - фельдшер скорой помощи делится ужасающими подробностями нередких здесь на трассе трагедий. Станция расположена в поселке Усть-Нера и приходится ежедневно преодолевать сотни километров, чтобы оказать помощь пострадавшим на дороге, приехать на вызов к жителям далёких северных деревень, а также к работникам многочисленных золотых приисков. Кстати, мы побываем и у них… Конечный пункт нашего маршрута – посёлок Зырянка, один из самых северных поселков Якутии. Зимой он выживает только благодаря "посылкам с Большой Земли" и таким людям как Василий. Иначе жизнь здесь невозможна. Василий Дьячковский в этих краях родился и вырос, на трассе Колыма провел уже 15 лет. Ежедневная работа за рулем стала смыслом жизни. Повидать пришлось всякое...
Доп. информация: Релиз -

Рип чистый. Без посторонних надписей. Выкладывается как есть.
Качество: HDTV 1080i
Контейнер: TS
Видео кодек: AVC
Аудио кодек: MP2
Видео: 1920x1080 (16:9) 25.000 fps ~ 9 562 Kbps, 0.184 bit/pixel
Аудио 1: MPEG Audio 48000Hz stereo 192 Кбит/сек 2 channels
Аудио 2: AC3, 6 channels, 48000Hz, 384 Кбит/сек

Скриншоты


Скринлист

MI

GeneralID : 1 (0x1)Complete name : H:\ВЫКЛАДКА\Воины бездорожья (2015, Документальный, HDTV 1080i) (MYDIMKA).tsFormat : MPEG-TSFile size : 4.02 GiBDuration : 50mn 57sOverall bit rate mode : VariableOverall bit rate : 11.3 Mbps
VideoID : 1603 (0x643)Menu ID : 603 (0x25B)Format : AVCFormat/Info : Advanced Video CodecFormat profile : High@L4.0Format settings, CABAC : YesFormat settings, ReFrames : 3 framesCodec ID : 27Duration : 50mn 57sBit rate : 10.2 MbpsWidth : 1 920 pixelsHeight : 1 080 pixelsDisplay aspect ratio : 16:9Frame rate : 25.000 fpsStandard : ComponentColor space : YUVChroma subsampling : 4:2:0Bit depth : 8 bitsScan type : InterlacedScan order : Top Field FirstBits/(Pixel*Frame) : 0.196Stream size : 3.62 GiB (90%)Color primaries : BT.709Transfer characteristics : BT.709Matrix coefficients : BT.709
Audio #1ID : 2603 (0xA2B)Menu ID : 603 (0x25B)Format : AC-3Format/Info : Audio Coding 3Mode extension : CM (complete main)Format settings, Endianness : BigCodec ID : 6Duration : 50mn 57sBit rate mode : ConstantBit rate : 384 KbpsChannel(s) : 6 channelsChannel positions : Front: L C R, Side: L R, LFESampling rate : 48.0 KHzBit depth : 16 bitsCompression mode : LossyStream size : 140 MiB (3%)Language : Russian
Audio #2ID : 2604 (0xA2C)Menu ID : 603 (0x25B)Format : MPEG AudioFormat version : Version 1Format profile : Layer 2Codec ID : 3Duration : 50mn 57sBit rate mode : ConstantBit rate : 192 KbpsChannel(s) : 2 channelsSampling rate : 48.0 KHzCompression mode : LossyStream size : 70.0 MiB (2%)Language : Russian
[Профиль] [ЛС]
Показать сообщения:    

Текущее время: Сегодня 07:02

Часовой пояс: GMT



Вы не можете начинать темы
Вы не можете отвечать на сообщения
Вы не можете редактировать свои сообщения
Вы не можете удалять свои сообщения
Вы не можете голосовать в опросах
Вы не можете прикреплять файлы к сообщениям
Вы не можете скачивать файлы