Воинственные бобры (Александр Беляков, Дмитрий Бабиченко) [1939 г., мультфильм, DVB]

 
Автор Сообщение

TorrentFilm ®

Пол:

Стаж: 2 года

Сообщений: 7741



Награды: Нет

Торрент-статистика

Создавать темы 04-Дек-2014 11:15

[Цитировать]

Воинственные бобры
Жанр: мультфильм
Год выпуска: 1939
Продолжительность: 00:09:04
Режиссёр: Александр Беляков, Дмитрий Бабиченко
Описание: мультфильм о том, как бобры отстроились после наводнения и прогнали рысь со своего острова.
Доп. информация: огромная благодарность за предоставленный исходник
мультфильм сделан в характерной диснеевской манере

Релиз группы:
Трансляция спутникового канала:

Качество видео: DVB
Формат видео: MPEG-PS
Видео: MPEG2 Video, 544x576@768x576 (4:3), анаморф, 25 fps, 4000 kbps
Аудио: MPEG Audio, 2 сh, 48 kHz, 192 Kbps

MediaInfo

General
Complete name : D:\Воинственные бобры. (1939)_DVB by RG multfilms.mpg
Format : MPEG-PS
File size : 275 MiB
Duration : 9mn 4s
Overall bit rate mode : Variable
Overall bit rate : 4 234 Kbps
Video
ID : 224 (0xE0)
Format : MPEG Video
Format version : Version 2
Format profile : Main@Main
Format settings, BVOP : No
Format settings, Matrix : Custom
Format settings, GOP : Variable
Duration : 9mn 4s
Bit rate mode : Variable
Bit rate : 3 957 Kbps
Maximum bit rate : 15.0 Mbps
Width : 544 pixels
Height : 576 pixels
Display aspect ratio : 4:3
Frame rate : 25.000 fps
Color space : YUV
Chroma subsampling : 4:2:0
Bit depth : 8 bits
Scan type : Interlaced
Scan order : Top Field First
Compression mode : Lossy
Bits/(Pixel*Frame) : 0.505
Time code of first frame : 00:00:00:00
Time code source : Group of pictures header
Stream size : 257 MiB (93%)
Audio
ID : 192 (0xC0)
Format : MPEG Audio
Format version : Version 1
Format profile : Layer 2
Duration : 9mn 4s
Bit rate mode : Constant
Bit rate : 192 Kbps
Channel(s) : 2 channels
Sampling rate : 48.0 KHz
Compression mode : Lossy
Stream size : 12.5 MiB (5%)

Скриншоты


[Профиль] [ЛС]
Кто просматривает тему:

Форум Тема Автор Размер
Разная литература Тайны воинских искусств - Асмолов К.В. - История холодного оружия (в 2-х частях) [1993-1994, DjVu] Garik014 9 MB
Разная литература Тайны воинских искусств - Медведев А.Н. - Казаки и рукопашный бой [1993, PDF, RUS] Garik014 6 MB
Фильмы (HD DVD, Blu-ray и BDRemux) Хоббит: Битва пяти воинств / The Hobbit: The Battle of the Five Armies (2014) BDRemux 1080р достали все 27.39 GB
Фильмы (HD Rips | 720p, 1080p) Хоббит: Битва пяти воинств / The Hobbit: The Battle of the Five Armies (2014) BDRip 1080p | Extended Cut | Лицензия BOSS 17.13 GB
Фильмы (HD Rips | 720p, 1080p) Хоббит: Битва пяти воинств / The Hobbit: The Battle of the Five Armies (2014) BDRip 1080p | iTunes Russia sergej644 14.39 GB
Фильмы (HD Rips | 720p, 1080p) Хоббит: Битва пяти воинств / The Hobbit: The Battle of the Five Armies (2014) BDRip 720p | Extended Cut | Лицензия BOSS 9.46 GB
Фильмы (HD Rips | 720p, 1080p) Хоббит: Битва пяти воинств / The Hobbit: The Battle of the Five Armies (2014) BDRip 720p от BlueBird | Extended Cut | iTunes BOSS 9.38 GB
Фильмы 2014 года Хоббит: Битва пяти воинств / The Hobbit: The Battle of the Five Armies (2014) BDRip | D | Лицензия достали все 2.91 GB
Показать сообщения:    

Текущее время: Сегодня 14:28

Часовой пояс: GMT



Вы не можете начинать темы
Вы не можете отвечать на сообщения
Вы не можете редактировать свои сообщения
Вы не можете удалять свои сообщения
Вы не можете голосовать в опросах
Вы не можете прикреплять файлы к сообщениям
Вы не можете скачивать файлы