Возлюбленные / The One I Love (Charli MakDauell / Charlie McDowell) [2014, США, Драма, мелодрама, комедия, мистика, BDRip-AVC] VO + Sub Rus

 
Автор Сообщение

TorrentFilm ®

Пол:

Стаж: 2 года

Сообщений: 7741



Награды: Нет

Торрент-статистика

Создавать темы 21-Дек-2014 02:18

[Цитировать]

Возлюбленные / The One I Love
Страна: США
Жанр: Драма, мелодрама, комедия, мистика
Год выпуска: 2014
Продолжительность: 01:31:19
Перевод: Одноголосый закадровый Lord32x
Cубтитры: русские,английские
Оригинальная аудиодорожка: нет
Режиссер: Charli MakDauell/Charlie McDowell
В ролях: Марк Дюпласс, Элизабет Мосс, Тед Дэнсон, Марли Мэтлин, Лори Фаррар, Райан Педерсон
Описание: Итан и Софи пытаются спасти свой разваливающийся брак при помощи психотерапевта. Когда его методы не срабатывают, он предлагает супругам последнее: отправиться на отдых в некое красивое уединенное место, обещая при этом почти стопроцентный результат. Оказавшись в уединении, Итан и Софи постепенно начинают замечать странные вещи…


Сэмпл: http://multi-up.com/1020814
Сравнение скриншотовhttp://screenshotcomparison.com/comparison/104530
Ссылка на релиз для сравнения:http://torrentfilm.net/forum/viewtopic.php?t=4884878
Качество видео: BDRip-AVC
Исходник:The.One.I.Love.2014.1080p.BluRay.AVC.DTS-HD.MA.5.1-HDAccess.iso.mounted.torrent/BitHQ/Lapad
Формат видео: MKV
Видео: h264;1056x442;Aspect Ratio: 12:5(2.40:1);1837kbps;23.976fps
Аудио: AC3;Sample Rate:48000Hz;Channel:6(5.1);384kbps
Формат субтитров: softsub (SRT)

MediaInfo

General
Unique ID : 196576591475032840840800327714055993810 (0x93E3463E570FF17DB4D071D0E15539D2)
Complete name : I:\Рипы\The One I Love (2014)\Dropbox\Возлюбленные.mkv
Format : Matroska
Format version : Version 2
File size : 1.45 GiB
Duration : 1h 31mn
Overall bit rate : 2 266 Kbps
Encoded date : UTC 2014-12-15 14:39:42
Writing application : mkvmerge v5.8.0 ('No Sleep / Pillow') built on Sep 2 2012 15:37:04
Writing library : libebml v1.2.3 + libmatroska v1.3.0
Video
ID : 1
Format : AVC
Format/Info : Advanced Video Codec
Format profile : High@L4.1
Format settings, CABAC : Yes
Format settings, ReFrames : 8 frames
Codec ID : V_MPEG4/ISO/AVC
Duration : 1h 31mn
Bit rate : 1 837 Kbps
Width : 1 056 pixels
Height : 442 pixels
Display aspect ratio : 2.40:1
Frame rate mode : Constant
Frame rate : 23.976 fps
Color space : YUV
Chroma subsampling : 4:2:0
Bit depth : 8 bits
Scan type : Progressive
Bits/(Pixel*Frame) : 0.164
Stream size : 1.17 GiB (81%)
Writing library : x264 core 142 Рип от KinoCollection
Encoding settings : cabac=1 / ref=8 / deblock=1:-3:-3 / analyse=0x3:0x113 / me=umh / subme=11 / psy=1 / fade_compensate=0.00 / psy_rd=1.00:0.10 / mixed_ref=1 / me_range=32 / chroma_me=1 / trellis=2 / 8x8dct=1 / cqm=0 / deadzone=21,11 / fast_pskip=0 / chroma_qp_offset=-3 / threads=6 / lookahead_threads=1 / sliced_threads=0 / nr=0 / decimate=1 / interlaced=0 / bluray_compat=0 / constrained_intra=0 / fgo=0 / bframes=16 / b_pyramid=2 / b_adapt=2 / b_bias=0 / direct=3 / weightb=1 / open_gop=1 / weightp=2 / keyint=240 / keyint_min=23 / scenecut=40 / intra_refresh=0 / rc_lookahead=50 / rc=crf / mbtree=1 / crf=16.5000 / qcomp=0.60 / qpmin=0 / qpmax=69 / qpstep=4 / ip_ratio=1.40 / aq=1:1.00
Language : English
Default : Yes
Forced : No
Audio
ID : 2
Format : AC-3
Format/Info : Audio Coding 3
Mode extension : CM (complete main)
Format settings, Endianness : Big
Codec ID : A_AC3
Duration : 1h 31mn
Bit rate mode : Constant
Bit rate : 384 Kbps
Channel(s) : 6 channels
Channel positions : Front: L C R, Side: L R, LFE
Sampling rate : 48.0 KHz
Bit depth : 16 bits
Compression mode : Lossy
Stream size : 251 MiB (17%)
Language : Russian
Default : Yes
Forced : No
Text #1
ID : 3
Format : UTF-8
Codec ID : S_TEXT/UTF8
Codec ID/Info : UTF-8 Plain Text
Language : Russian
Default : No
Forced : No
Text #2
ID : 4
Format : UTF-8
Codec ID : S_TEXT/UTF8
Codec ID/Info : UTF-8 Plain Text
Language : English
Default : No
Forced : No
Menu
00:00:00.000 : :00:00:00.000
00:04:44.409 : :00:04:44.409
00:10:56.781 : :00:10:56.781
00:16:03.629 : :00:16:03.629
00:21:57.983 : :00:21:57.983
00:27:54.965 : :00:27:54.965
00:35:03.601 : :00:35:03.601
00:40:53.785 : :00:40:53.785
00:47:22.673 : :00:47:22.673
00:55:23.028 : :00:55:23.028
01:01:22.971 : :01:01:22.971
01:07:24.374 : :01:07:24.374
01:12:41.774 : :01:12:41.774
01:18:16.108 : :01:18:16.108
01:25:40.510 : :01:25:40.510
01:28:34.392 : :01:28:34.392

Скриншот c названием фильма

Скриншоты

[Профиль] [ЛС]
Показать сообщения:    

Текущее время: Сегодня 02:44

Часовой пояс: GMT



Вы не можете начинать темы
Вы не можете отвечать на сообщения
Вы не можете редактировать свои сообщения
Вы не можете удалять свои сообщения
Вы не можете голосовать в опросах
Вы не можете прикреплять файлы к сообщениям
Вы не можете скачивать файлы