Возлюбленные / The One I Love (Чарли МакДауэлл / Charlie McDowell) [2014, США, Драма, мелодрама, комедия, мистика , HDRip ] VO (Lord32x)

 
Автор Сообщение

TorrentFilm ®

Пол:

Стаж: 2 года

Сообщений: 7741



Награды: Нет

Торрент-статистика

Создавать темы 21-Дек-2014 02:15

[Цитировать]

Возлюбленные / The One I Love
Страна: США
Жанр: Драма, мелодрама, комедия, мистика
Год выпуска: 2014
Продолжительность: 01:31:19
Перевод: Одноголосый (закадровый) [Lord32x]
Оригинальная аудиодорожка: нет
Cубтитры: нет
Режиссер: Чарли МакДауэлл / Charlie McDowell
В ролях: Марк Дюпласс, Элизабет Мосс, Тед Дэнсон, Марли Мэтлин, Лори Фаррар, Райан Педерсон
Описание: Итан и Софи пытаются спасти свой разваливающийся брак при помощи психотерапевта. Когда его методы не срабатывают, он предлагает супругам последнее: отправиться на отдых в некое красивое уединенное место, обещая при этом почти стопроцентный результат. Оказавшись в уединении, Итан и Софи постепенно начинают замечать странные вещи…

Сэмпл
Качество: HDRip
Контейнер: AVI
Видео: 720x304 (2.37:1), 23.976 fps, XviD build 50 ~1903 kbps avg, 0.36 bit/pixel
Аудио: 48 kHz, AC3 Dolby Digital, 3/2 (L,C,R,l,r) + LFE ch, ~384 kbps

MI

General
Complete name : C:\Users\Вячеслав\Downloads\The One I Love (2014).avi
Format : AVI
Format/Info : Audio Video Interleave
File size : 1.47 GiB
Duration : 1h 31mn
Overall bit rate : 2 297 Kbps
Writing application : VirtualDubMod 1.5.10.3 | www.virtualdub-fr.org || (build 2550/release)
Writing library : VirtualDubMod build 2550/release
Video
ID : 0
Format : MPEG-4 Visual
Format profile : Advanced Simple@L5
Format settings, BVOP : 1
Format settings, QPel : No
Format settings, GMC : No warppoints
Format settings, Matrix : Default (H.263)
Codec ID : XVID
Codec ID/Hint : XviD
Duration : 1h 31mn
Bit rate : 1 904 Kbps
Width : 720 pixels
Height : 304 pixels
Display aspect ratio : 2.35:1
Frame rate : 23.976 fps
Color space : YUV
Chroma subsampling : 4:2:0
Bit depth : 8 bits
Scan type : Progressive
Compression mode : Lossy
Bits/(Pixel*Frame) : 0.363
Stream size : 1.21 GiB (83%)
Writing library : XviD 1.2.1 (UTC 2008-12-04)
Audio
ID : 1
Format : AC-3
Format/Info : Audio Coding 3
Mode extension : CM (complete main)
Format settings, Endianness : Big
Codec ID : 2000
Duration : 1h 31mn
Bit rate mode : Constant
Bit rate : 384 Kbps
Channel(s) : 6 channels
Channel positions : Front: L C R, Side: L R, LFE
Sampling rate : 48.0 KHz
Bit depth : 16 bits
Compression mode : Lossy
Stream size : 251 MiB (17%)
Alignment : Split accross interleaves
Interleave, duration : 42 ms (1.00 video frame)
Interleave, preload duration : 500 ms

Скриншоты

[Профиль] [ЛС]
Показать сообщения:    

Текущее время: Сегодня 20:25

Часовой пояс: GMT



Вы не можете начинать темы
Вы не можете отвечать на сообщения
Вы не можете редактировать свои сообщения
Вы не можете удалять свои сообщения
Вы не можете голосовать в опросах
Вы не можете прикреплять файлы к сообщениям
Вы не можете скачивать файлы