Воззвание 18 июня / Ce jour la, tout a change: L\'appel du 18 Juin (Феликс Оливье / Felix Olivier) [2010, Франция, исторический, биографический, военный, драма, DVB] DVO (Ред Медиа) + Original (Fre) + Sub (Rus)

 
Автор Сообщение

TorrentFilm ®

Пол:

Стаж: 2 года

Сообщений: 7741



Награды: Нет

Торрент-статистика

Создавать темы 18-Май-2015 00:03

[Цитировать]

Воззвание 18 июня
L'appel du 18 Juin- Страна: Франция
Жанр: исторический, биографический, военный, драма
Год выпуска: 2010
Продолжительность: 01:27:12Перевод: Профессиональный (двухголосый закадровый) ТПО "Ред Медиа" по заказу канала "365 дней"
Cубтитры: русские, французские, немецкие, нидерландские, румынские
Оригинальная аудиодорожка: французский
Режиссер: Феликс Оливье / Felix Olivier
В ролях: Мишель Вюйермоз / Michel Vuillermoz (Charles De Gaulle), Клеман Руссье / Clément Roussier (Lieutenant Geoffroy Chodron de Courcel), Кристиан Родска / Christian Rodska (Winston Churchill), Питер Хадсон / Peter Hudson (General Spears), Дэвид Лоу / David Lowe (Lord Halifax), Эрик Наггар / Eric Naggar (Georges Mandel), Софи-Шарлотт Юссон / Sophie-Charlotte Husson (Hélène De Portes)
Описание: Четвертый фильм из исторического цикла "В этот день всё изменилось / Ce jour là, tout a changé", посвященного эпохальным датам французской истории.
1940 год. Французская армия разгромлена, и генерал де Голль отправился в Лондон просить помощи у Уинстона Черчилля. Здесь же он узнает, что маршал Петен ведет переговоры с Гитлером о сдаче Франции. 18 июня де Голль обратился к соотечественникам по радио с речью, которая дала толчок движению Сопротивления.
Доп. информация: Hot Bird (13.0°E) TV5MONDE Europe DVB-S. Русская озвучка взята с раздачи TVRip.

Качество видео: DVB
Формат видео: DVD Video
Видео: MPEG Video 2, 720x576@1024x576 (16:9), 25 fps, ~3211 kbps avg, 0.310 bit/pixel
Аудио 1: AC3, 2 ch, 48 kHz, ~192.00 kbps avg - русский
Аудио 2: MPEG Audio 2, 2 ch, 48 kHz, ~192.00 kbps avg - французский
Формат субтитров: prerendered (IDX+SUB)

DVDInfo, MediaInfo

Title: [apreder]L'appel_du_18_Jun(2010)DVBSize: 2.23 Gb ( 2 343 492,00 KBytes ) - DVD-5Enabled regions: 1, 2, 3, 4, 5, 6, 7, 8
VTS_01 : Play Length: 01:27:12 Video: PAL 16:9 (720x576) VBR, Auto Letterboxed Audio: Russian (Dolby AC3, 2 ch) Francais (MPEG1, 2 ch) Subtitles: Russian Francais Deutsch Nederlands Romanian
ОбщееПолное имя : H:\My Torrents\[apreder]L'appel_du_18_Jun(2010)DVB\VIDEO_TS\VTS_01_2.VOBФормат : MPEG-PSРазмер файла : 1024 МбайтПродолжительность : 39 м.Режим общего битрейта : ПеременныйОбщий поток : 3668 Кбит/сек
ВидеоИдентификатор : 224 (0xE0)Формат : MPEG VideoВерсия формата : Version 2Профиль формата : Main@MainПараметр BVOP формата : ДаПараметр матрицы формата : ВыборочнаяПараметр GOP формата : VariableFormat_Settings_PictureStructure : FrameПродолжительность : 39 м.Вид битрейта : ПеременныйБитрейт : 3211 Кбит/секШирина : 720 пикселейВысота : 576 пикселейСоотношение сторон : 16:9Частота кадров : 25,000 кадров/секСтандарт вещания : PALЦветовое пространство : YUVСубдискретизация насыщенности : 4:2:0Битовая глубина : 8 битТип развёртки : ЧересстрочнаяПорядок развёртки : Верхнее поле первоеМетод сжатия : С потерямиБит/(Пиксели*Кадры) : 0.310Временной код первого кадра : 00:39:01:04Оригинал временного кода : Group of pictures headerРазмер потока : 896 Мбайт (88%)
Аудио #1Идентификатор : 193 (0xC1)Формат : MPEG AudioВерсия формата : Version 1Профиль формата : Layer 2Режим : Joint stereoРасширение режима : Intensity Stereo + MS StereoПродолжительность : 39 м.Вид битрейта : ПостоянныйБитрейт : 192 Кбит/секКаналы : 2 каналаЧастота : 48,0 КГцМетод сжатия : С потерямиЗадержка видео : -584 мс.Размер потока : 53,6 Мбайт (5%)
Аудио #2Идентификатор : 189 (0xBD)-128 (0x80)Формат : AC-3Формат/Информация : Audio Coding 3Расширение режима : CM (complete main)Параметр Endianness формата : BigРежим смешивания : DVD-VideoПродолжительность : 39 м.Вид битрейта : ПостоянныйБитрейт : 192 Кбит/секКаналы : 2 каналаРасположение каналов : Front: L RЧастота : 48,0 КГцБитовая глубина : 16 битМетод сжатия : С потерямиЗадержка видео : -512 мс.Размер потока : 53,6 Мбайт (5%)
Текст #1Идентификатор : 189 (0xBD)-32 (0x20)Формат : RLEФормат/Информация : Run-length encodingРежим смешивания : DVD-VideoПродолжительность : 38 м.Задержка видео : 4 с. 760 мс.
Текст #2Идентификатор : 189 (0xBD)-34 (0x22)Формат : RLEФормат/Информация : Run-length encodingРежим смешивания : DVD-VideoПродолжительность : 38 м.Задержка видео : 4 с. 760 мс.
Текст #3Идентификатор : 189 (0xBD)-35 (0x23)Формат : RLEФормат/Информация : Run-length encodingРежим смешивания : DVD-VideoПродолжительность : 38 м.Задержка видео : 4 с. 760 мс.
Текст #4Идентификатор : 189 (0xBD)-36 (0x24)Формат : RLEФормат/Информация : Run-length encodingРежим смешивания : DVD-VideoПродолжительность : 38 м.Задержка видео : 4 с. 480 мс.
Текст #5Идентификатор : 189 (0xBD)-33 (0x21)Формат : RLEФормат/Информация : Run-length encodingРежим смешивания : DVD-Video

Скриншот c названием фильма

Скриншоты


Резервные скриншоты


-[2'279]
[Профиль] [ЛС]

Создавать темы 06-Авг-2015 22:31 (спустя 2 месяца 19 дней)

Топик был перенесен из форума Фильмы до 2014 года в форум Фильмы до 2012 года
sergej644
 

Создавать темы 12-Июн-2016 07:54 (спустя 1 год)

Топик был перенесен из форума Фильмы 2011 года в форум Фильмы 2010 года
Russian Mafia
 
Кто просматривает тему:

Показать сообщения:    

Текущее время: Сегодня 14:28

Часовой пояс: GMT



Вы не можете начинать темы
Вы не можете отвечать на сообщения
Вы не можете редактировать свои сообщения
Вы не можете удалять свои сообщения
Вы не можете голосовать в опросах
Вы не можете прикреплять файлы к сообщениям
Вы не можете скачивать файлы