Воздушный маршал / Non-Stop (Хауме Кольет-Серра / Jaume Collet-Serra) [2014, США, боевик, триллер, детектив, BDRip] [Локализованный видеоряд] Dub + Original + Sub (Rus, Eng)

 
Автор Сообщение

Создавать темы 13-Июл-2014 16:36

Воздушный маршал / Non-Stop
«Захват самолёта - это только начало»
- Страна: США, Франция / StudioCanal, Silver Pictures, Anton Capital Entertainment (ACE), Silver Pictures, Canal+
Жанр: Боевик, Триллер, Детектив
Год выпуска: 2014
Продолжительность: 01:46:02
Перевод:
Профессиональный (полное дублирование) [Лицензия «Blu-Ray RUS»]
Оригинальная звуковая дорожка: [Английская]
Cубтитры: Русские, Английские, (внешние srt*)-Примечание: SMS - сообщения и надписи на русском языке-Режиссер: Хауме Кольет-Серра / Jaume Collet-Serra
Продюсер: Джоэл Силвер / Joel Silver, Алекс Хейнеман / Alex Heineman, Эндрю Рона / Andrew Rona, Стивен Бендер / Stephen Bender, Джефф Уодлоу / Jeff Wadlow-В ролях: Лиам Нисон (Bill Marks), Джулианна Мур (Jen Summers), Скут МакНэйри (Tom Bowen), Мишель Докери (Nancy), Нэйт Паркер (Zack White), Кори Столл (Austin Reilly), Лупита Нионго (Gwen), Омар Метуолли (Dr. Fahim Nasir), Джейсон Батлер Харнер (Kyle Rice), Лайнас Роуч (David McMillan), Ши Уигхэм (Agent Marenick), Энсон Маунт (Jack Hammond)-О фильме: Межконтинентальный авиарейс. Билл Маркс, воздушный маршал, который обеспечивает безопасность пассажиров, получает сообщения с угрозами от маньяка-террориста. Преступник просчитал все ходы и подставил под обвинение самого спецагента. Теперь Маркс - цель спецслужб США. Ему остается одно: вычислить и обезвредить преступника, спасти пассажиров и свою любовь, которую он обретает на краю гибели. До взрыва остаются считанные минуты...-КиноПоиск ~ 7.377 (20 935 )
IMDB ~ 7.10 (75 740)
-Автор рипа : -Качество видео: BDRip [Источник: BDRemux / 1080p AVC DD5.1] [Русский видеоряд]
Формат видео: AVI
Видео: 720x304 (2.37:1), 24 fps, XviD build 73 ~2115 kbps avg, 0.40 bit/pixel
Аудиокодек: Dolby AC3 5.1
Аудио : 48 kHz/16-bit, AC3 Dolby Digital, 3/2 (L,C,R,l,r) + LFE ch, ~384kbps | Dub
Аудио : 48 kHz/16-bit, AC3 Dolby Digital, 3/2 (L,C,R,l,r) + LFE ch, ~384 kbps | Original
Скачать: Семпл-
Mi">

Кадры из фильма Mi

Полное имя : [2014]_Vozdushnyi_Marshal_BDRip.avi
Формат : AVI
Формат/Информация : Audio Video Interleave
Профиль формата : OpenDML
Размер файла : 2,19 Гбайт
Продолжительность : 1 ч. 46 м.
Общий поток : 2953 Кбит/сек
Название фильма : Воздушный маршл / Non-Stop (2014) BDRip
Режиссёр : Rensler
Жанр : Детектив / Триллер / Боевик
Программа кодирования : VirtualDubModRus 1.5.10.2 (build 2542/release)
Библиотека кодирования : VirtualDubMod build 2542/release
Примечание : 20.06.2014
Видео
Идентификатор : 0
Формат : MPEG-4 Visual
Профиль формата : Advanced Simple@L5
Параметр BVOP формата : 2
Параметр QPel формата : Нет
Параметр GMC формата : Без точки перехода
Параметр матрицы формата : Выборочная
Идентификатор кодека : XVID
Идентификатор кодека/Подсказка : XviD
Продолжительность : 1 ч. 46 м.
Битрейт : 2115 Кбит/сек
Ширина : 720 пикселей
Высота : 304 пикселя
Соотношение сторон : 2,35:1
Частота кадров : 24,000 кадра/сек
Цветовое пространство : YUV
Субдискретизация насыщенности : 4:2:0
Битовая глубина : 8 бит
Тип развёртки : Прогрессивная
Метод сжатия : С потерями
Бит/(Пиксели*Кадры) : 0.400
Размер потока : 1,56 Гбайт (71%)
Библиотека кодирования : XviD 73
Аудио #1
Идентификатор : 1
Формат : AC-3
Формат/Информация : Audio Coding 3
Расширение режима : CM (complete main)
Идентификатор кодека : 2000
Продолжительность : 1 ч. 46 м.
Вид битрейта : Постоянный
Битрейт : 384 Кбит/сек
Каналы : 6 каналов
Расположение каналов : Front: L C R, Side: L R, LFE
Частота : 48,0 КГц
Битовая глубина : 16 бит
Метод сжатия : С потерями
Размер потока : 291 Мбайт (13%)
Выравнивание : Разделение по промежуткам
Продолжительность промежутка : 42 мс. (1,00 видеокадр)
Время предзагрузки промежутка : 500 мс.
Заголовок : Russian
Аудио #2
Идентификатор : 2
Формат : AC-3
Формат/Информация : Audio Coding 3
Расширение режима : CM (complete main)
Идентификатор кодека : 2000
Продолжительность : 1 ч. 46 м.
Вид битрейта : Постоянный
Битрейт : 384 Кбит/сек
Каналы : 6 каналов
Расположение каналов : Front: L C R, Side: L R, LFE
Частота : 48,0 КГц
Битовая глубина : 16 бит
Метод сжатия : С потерями
Размер потока : 340 Мбайт (15%)
Выравнивание : Разделение по промежуткам
Продолжительность промежутка : 42 мс. (1,00 видеокадр)
Время предзагрузки промежутка : 500 мс.
Заголовок : English
Спасибо за благодарность!
 
Показать сообщения:    

Текущее время: Сегодня 18:01

Часовой пояс: GMT



Вы не можете начинать темы
Вы не можете отвечать на сообщения
Вы не можете редактировать свои сообщения
Вы не можете удалять свои сообщения
Вы не можете голосовать в опросах
Вы не можете прикреплять файлы к сообщениям
Вы не можете скачивать файлы