Воздушные убийцы / Hover (2018) WEBRip 720p | L2

 
Автор Сообщение

BOSS ®

Пол:

Стаж: 4 года 1 месяц

Сообщений: 12442

Откуда: ODESSA



Награды: 22 (Подробнее)

Top Releaser 3 (Количество: 1) Mega Releaser 1 (Количество: 1) Top Releaser 2 (Количество: 1)
Торрент-статистика

Создавать темы 10-Июл-2018 18:44

[Цитировать]

Информация о фильме
Название: Воздушные убийцы
Оригинальное название: Hover
Год выхода: 2018
Жанр: Фантастика
Режиссер: Мэтт Остерман
В ролях: Клеопатра Коулмэн, Шэйн Цвинер, Мумс Да Шемер, Фаббианн Терез, Рода Гриффис, Лео Фицпатрик, Бет Грант, Ронда Дентс, Касандра Бандфилд, Д. Хендерсон Бэйкер и другие
О фильме:
Во всем мире идет борьба с засухой и вызванным ею голодом. Вот и компания Вастгроу занимается решением данной проблемы, разрабатывая автономные дроны для сельского хозяйства. Однако машины, созданные для того, чтобы помогать людям, оказались воздушными убийцами. Найдется ли тот, кто сможет их остановить?

Страна: США, Snowfort Pictures
Продолжительность: 01:26:59
Перевод: Любительский (двухголосый закадровый) | HiWay Grope
Файл
Кодек: MPEG-4 AVC/x.264
Качество: WEBRip 720p
Видео: 1280x528, 23.976 fps, ~2921 kbps, 0.180 bit/pixel
Звук:
Аудио rus: AC3, 48 kHz, 6 ch, 384 Kbps
Субтитры: отсутствуют
Реклама: присутствует
Семпл

MediaInfo:

General
Unique ID : 98310183012430963648709680561800514771 (0x49F5DA3F6B06E6696E1FDF79351E8CD3)
Complete name : D:Hover.2018.720p.WEBRip.HiWayGropeHover.2018.720p.WEBRip.HiWayGrope.mkv
Format : Matroska
Format version : Version 4 / Version 2
File size : 2.05 GiB
Duration : 1 h 26 min
Overall bit rate : 3 372 kb/s
Encoded date : UTC 2018-07-10 16:00:38
Writing application : mkvmerge v21.0.0 ('Tardigrades Will Inherit The Earth') 64-bit
Writing library : libebml v1.3.5 + libmatroska v1.4.8
Video
ID : 1
Format : AVC
Format/Info : Advanced Video Codec
Format profile : Main@L4.1
Format settings : CABAC / 4 Ref Frames
Format settings, CABAC : Yes
Format settings, ReFrames : 4 frames
Codec ID : V_MPEG4/ISO/AVC
Duration : 1 h 26 min
Bit rate : 2 921 kb/s
Width : 1 280 pixels
Height : 528 pixels
Display aspect ratio : 2.40:1
Frame rate mode : Constant
Frame rate : 23.976 (24000/1001) FPS
Standard : NTSC
Color space : YUV
Chroma subsampling : 4:2:0
Bit depth : 8 bits
Scan type : Progressive
Bits/(Pixel*Frame) : 0.180
Stream size : 1.77 GiB (87%)
Language : English
Default : Yes
Forced : No
Color range : Limited
Color primaries : BT.601 NTSC
Transfer characteristics : BT.601
Matrix coefficients : BT.601
Audio
ID : 2
Format : AC-3
Format/Info : Audio Coding 3
Codec ID : A_AC3
Duration : 1 h 26 min
Bit rate mode : Constant
Bit rate : 384 kb/s
Channel(s) : 6 channels
Channel positions : Front: L C R, Side: L R, LFE
Sampling rate : 48.0 kHz
Frame rate : 31.250 FPS (1536 SPF)
Bit depth : 16 bits
Compression mode : Lossy
Stream size : 239 MiB (11%)
Language : Russian
Service kind : Complete Main
Default : Yes
Forced : No

Скриншоты

Релиз от: HiWay Grope
[Профиль] [ЛС]
Показать сообщения:    

Текущее время: Сегодня 13:16

Часовой пояс: GMT



Вы не можете начинать темы
Вы не можете отвечать на сообщения
Вы не можете редактировать свои сообщения
Вы не можете удалять свои сообщения
Вы не можете голосовать в опросах
Вы не можете прикреплять файлы к сообщениям
Вы не можете скачивать файлы