Воздушная тюрьма / Con Air (Саймон Уэст / Simon West)[1997, боевик, триллер, криминал, BDRip] 1080p

 
Автор Сообщение

sergej644 ®

Пол:

Стаж: 4 года 11 месяцев

Сообщений: 6044

Откуда: Soviet Union



Награды: Нет

Торрент-статистика

Создавать темы 19-Авг-2014 22:10

[Цитировать]

--Воздушная тюрьма / Con AirГод выпуска: 1997
Страна: США
Производство: Hiett Designs of Las Vegas, Jerry Bruckheimer Films, Kouf/Bigelow Productions, Runway Pictures Inc., Touchstone Pictures
Слоган: «Они были смертельно опасны на земле. Теперь у них появились крылья»
Жанр: боевик, триллер, криминал
Продолжительность: 01:55:26
Перевод:
Профессиональный (полное дублирование) Blu-ray CEE
Профессиональный (многоголосый, закадровый) OPT
Профессиональный (многоголосый, закадровый) HTB
Профессиональный (двухголосый) П.Гланц и И.Королева
Авторский (Юрий Живов)
Авторский (Андрей Гаврилов)
Авторский (Диктор CDV)
Профессиональный (двухголосый) 1+1
Субтитры: Russian (x2), Ukrainian, English-Режиссер: Саймон Уэст / Simon West
Сценарий: Скотт Розенберг / Scott Rosenberg
Продюсер: Джерри Брукхаймер / Jerry Bruckheimer, Кенни Бейтс / Kenny Bates, Питер Богарт / Peter Bogart, Джонатан Хенсли / Jonathan Hensleigh, Джим Кауф / Jim Kouf
Оператор: Дэвид Тэттерсолл / David Tattersall
Композитор: Марк Манчина / Mark Mancina, Тревор Рэбин / Trevor Rabin-В ролях: Николас Кейдж (Cameron Poe), Джон Кьюсак (Vince Larkin), Джон Малкович (Cyrus «The Virus» Grissom), Винг Реймз (Diamond Dog), Майкелти Уильямсон (Baby-O), Рэйчел Тикотин (Guard Sally Bishop), Ник Чинланд (Billy Bedlam), Стив Бушеми (Garland «The Marietta Mangler» Greene), Колм Мини (Duncan Malloy), Дэнни Трехо (Johnny-23), Дэйв Шаппелл (Pinball), Моника Поттер (Tricia Poe)
Дублёры: Станислав Концевич (Cameron Poe), Анатолий Петров (Vince Larkin), Вячеслав Захаров (Cyrus «The Virus» Grissom), Борис Соколов (Diamond Dog), Игорь Окрепилов (Baby-O), Ирина Ракшина (Guard Sally Bishop), Виктор Смирнов (Billy Bedlam), Александр Демьяненко (Garland «The Marietta Mangler» Greene), Михаил Матвеев (Duncan Malloy), Иван Краско (Johnny-23; Guard Falzon; Swamp Thing), Олег Куликович (Pinball), Анжелика Неволина (Tricia Poe; Ginny)-Бюджет: $75 000 000
Сборы в США: $101 117 573
Сборы в мире: $224 012 234
Мировая премьера: 2 июня 1997
Релиз на DVD: 18 июня 2009, «Уолт Дисней Компани СНГ»
Релиз на Blu-ray: 23 ноября 2010, «Уолт Дисней Компани СНГ»-Описание: «Воздушная тюрьма» - транспортное подразделение полиции США, перевозящее особо опасных преступников. Одним из этих рейсов возвращается домой Кэмерон По, освобожденный из тюрьмы после 8 лет заключения. Он так долго ждал этого и ничто не должно остановить его на пути домой.
Внезапно Кэмерон оказывается свидетелем захвата самолета, организованного опаснейшим рецидивистом Сайрусом «Вирусом» Гриссомом. Он решает взять ситуацию в свои руки и помочь полиции, ведь для него это - единственный шанс попасть домой. Только один человек на земле готов поверить ему - шериф Винс Ларкин, который вынужден преодолевать невероятные трудности, чтобы предотвратить бегство преступников и не позволить своим ретивым начальникам взорвать самолет вместе со всеми пассажирами.-Рейтинг:

MPAA: R - Лицам до 17 лет обязательно присутствие взрослого-Формат: Matroska
Источник: Con Air 1997 Blu-ray CEE 1080p VC-1 LPCM 5.1-DVDSEED
Видео: 1920x820 (2.35:1) at 23.976 fps, x264@L4.1, ~15.5 Mbps
Аудио#1: Russian: 48 kHz, AC3, 2/0 (L,R) ch, ~192.00 kbps avg |Дубляж, Blu-ray CEE|
Аудио#2: Russian: 48 kHz, AC3, 3/2 (L,C,R,l,r) + LFE ch, ~448.00 kbps avg |Многоголосый закадровый, OPT|
Аудио#3: Russian: 48 kHz, AC3, 3/2 (L,C,R,l,r) + LFE ch, ~448.00 kbps avg |Многоголосый закадровый, HTB|
Аудио#4: Russian: 48 kHz, DTS, 3/2 (L,C,R,l,r) + LFE ch, ~1536.00 kbps avg |Двухголосый закадровый, П.Гланц и И.Королева|
Аудио#5: Russian: 48 kHz, DTS, 3/2 (L,C,R,l,r) + LFE ch, ~1536.00 kbps avg |Авторский, Ю.Живов|
Аудио#6: Russian: 48 kHz, AC3, 3/2 (L,C,R,l,r) + LFE ch, ~448.00 kbps avg |Авторский, А.Гаврилов|
Аудио#7: Russian: 48 kHz, AC3, 3/2 (L,C,R,l,r) + LFE ch, ~448.00 kbps avg |Авторский, Диктор CDV|
Aудио#8: Ukrainian: 48 kHz, AC3, 3/2 (L,C,R,l,r) + LFE ch, ~384.00 kbps avg |Двухголосый закадровый, 1+1|
Аудио#9: English: 48 kHz, DTS, 3/2 (L,C,R,l,r) + LFE ch, ~1536.00 kbps avg-

MI

General
Unique ID : 236591375680173812411372779778851515260 (0xB1FDD76C95B1AB36BA9A529F87F0AB7C)
Complete name : ConAir.1997.1080p.BluRay.7xRus.Ukr.Eng.HDCLUB.mkv
Format : Matroska
Format version : Version 2
File size : 18.1 GiB
Duration : 1h 55mn
Overall bit rate : 22.4 Mbps
Movie name : Con Air (1997) - Release for HDCLUB
Encoded date : UTC 2014-08-11 23:36:17
Writing application : mkvmerge v5.7.0 ('The Whirlwind') built on Jul 8 2012 20:08:51
Writing library : libebml v1.2.3 + libmatroska v1.3.0
Video
ID : 1
Format : AVC
Format/Info : Advanced Video Codec
Format profile : High@L4.1
Format settings, CABAC : Yes
Format settings, ReFrames : 5 frames
Codec ID : V_MPEG4/ISO/AVC
Duration : 1h 55mn
Bit rate : 15.5 Mbps
Width : 1 920 pixels
Height : 820 pixels
Display aspect ratio : 2.35:1
Frame rate mode : Constant
Frame rate : 23.976 fps
Color space : YUV
Chroma subsampling : 4:2:0
Bit depth : 8 bits
Scan type : Progressive
Bits/(Pixel*Frame) : 0.411
Stream size : 12.1 GiB (67%)
Writing library : x264 core 115 r2008 4c552d8
Encoding settings : cabac=1 / ref=5 / deblock=1:-3:-3 / analyse=0x3:0x133 / me=umh / subme=10 / psy=1 / psy_rd=1.15:0.10 / mixed_ref=1 / me_range=32 / chroma_me=1 / trellis=2 / 8x8dct=1 / cqm=0 / deadzone=21,11 / fast_pskip=0 / chroma_qp_offset=-3 / threads=12 / sliced_threads=0 / nr=0 / decimate=0 / interlaced=0 / bluray_compat=0 / constrained_intra=0 / bframes=7 / b_pyramid=2 / b_adapt=2 / b_bias=0 / direct=3 / weightb=1 / open_gop=0 / weightp=2 / keyint=250 / keyint_min=23 / scenecut=40 / intra_refresh=0 / rc_lookahead=60 / rc=2pass / mbtree=1 / bitrate=15500 / ratetol=1.0 / qcomp=0.75 / qpmin=0 / qpmax=69 / qpstep=4 / cplxblur=20.0 / qblur=0.5 / vbv_maxrate=50000 / vbv_bufsize=62500 / nal_hrd=none / ip_ratio=1.40 / aq=1:0.80
Language : English
Default : Yes
Forced : No
Audio #1
ID : 2
Format : AC-3
Format/Info : Audio Coding 3
Mode extension : CM (complete main)
Format settings, Endianness : Big
Codec ID : A_AC3
Duration : 1h 55mn
Bit rate mode : Constant
Bit rate : 192 Kbps
Channel(s) : 2 channels
Channel positions : Front: L R
Sampling rate : 48.0 KHz
Bit depth : 16 bits
Compression mode : Lossy
Stream size : 159 MiB (1%)
Title : |Дубляж, Blu-ray CEE|
Language : Russian
Default : Yes
Forced : No
Audio #2
ID : 3
Format : AC-3
Format/Info : Audio Coding 3
Mode extension : CM (complete main)
Format settings, Endianness : Big
Codec ID : A_AC3
Duration : 1h 55mn
Bit rate mode : Constant
Bit rate : 448 Kbps
Channel(s) : 6 channels
Channel positions : Front: L C R, Side: L R, LFE
Sampling rate : 48.0 KHz
Bit depth : 16 bits
Compression mode : Lossy
Stream size : 370 MiB (2%)
Title : |Многоголосый закадровый, OPT|
Language : Russian
Default : No
Forced : No
Audio #3
ID : 4
Format : AC-3
Format/Info : Audio Coding 3
Mode extension : CM (complete main)
Format settings, Endianness : Big
Codec ID : A_AC3
Duration : 1h 55mn
Bit rate mode : Constant
Bit rate : 448 Kbps
Channel(s) : 6 channels
Channel positions : Front: L C R, Side: L R, LFE
Sampling rate : 48.0 KHz
Bit depth : 16 bits
Compression mode : Lossy
Stream size : 370 MiB (2%)
Title : |Многоголосый закадровый, HTB|
Language : Russian
Default : No
Forced : No
Audio #4
ID : 5
Format : DTS
Format/Info : Digital Theater Systems
Mode : 16
Format settings, Endianness : Big
Codec ID : A_DTS
Duration : 1h 55mn
Bit rate mode : Constant
Bit rate : 1 509 Kbps
Channel(s) : 6 channels
Channel positions : Front: L C R, Side: L R, LFE
Sampling rate : 48.0 KHz
Bit depth : 16 bits
Compression mode : Lossy
Stream size : 1.22 GiB (7%)
Title : |Двухголосый закадровый, П.Гланц и И.Королёва|
Language : Russian
Default : No
Forced : No
Audio #5
ID : 6
Format : AC-3
Format/Info : Audio Coding 3
Mode extension : CM (complete main)
Format settings, Endianness : Big
Codec ID : A_AC3
Duration : 1h 55mn
Bit rate mode : Constant
Bit rate : 448 Kbps
Channel(s) : 6 channels
Channel positions : Front: L C R, Side: L R, LFE
Sampling rate : 48.0 KHz
Bit depth : 16 bits
Compression mode : Lossy
Stream size : 370 MiB (2%)
Title : |Одноголосый закадровый, А.Гаврилов|
Language : Russian
Default : No
Forced : No
Audio #6
ID : 7
Format : AC-3
Format/Info : Audio Coding 3
Mode extension : CM (complete main)
Format settings, Endianness : Big
Codec ID : A_AC3
Duration : 1h 55mn
Bit rate mode : Constant
Bit rate : 448 Kbps
Channel(s) : 6 channels
Channel positions : Front: L C R, Side: L R, LFE
Sampling rate : 48.0 KHz
Bit depth : 16 bits
Compression mode : Lossy
Stream size : 370 MiB (2%)
Title : |Одноголосый закадровый, Диктор CDV|
Language : Russian
Default : No
Forced : No
Audio #7
ID : 8
Format : DTS
Format/Info : Digital Theater Systems
Mode : 16
Format settings, Endianness : Big
Codec ID : A_DTS
Duration : 1h 55mn
Bit rate mode : Constant
Bit rate : 1 510 Kbps
Channel(s) : 6 channels
Channel positions : Front: L C R, Side: L R, LFE
Sampling rate : 48.0 KHz
Bit depth : 24 bits
Compression mode : Lossy
Stream size : 1.22 GiB (7%)
Title : |Одноголосый закадровый, Ю.Живов|
Language : Russian
Default : No
Forced : No
Audio #8
ID : 9
Format : AC-3
Format/Info : Audio Coding 3
Mode extension : CM (complete main)
Format settings, Endianness : Big
Codec ID : A_AC3
Duration : 1h 55mn
Bit rate mode : Constant
Bit rate : 384 Kbps
Channel(s) : 6 channels
Channel positions : Front: L C R, Side: L R, LFE
Sampling rate : 48.0 KHz
Bit depth : 16 bits
Compression mode : Lossy
Stream size : 317 MiB (2%)
Title : |Двухголосый закадровый, 1+1|
Language : Ukrainian
Default : No
Forced : No
Audio #9
ID : 10
Format : DTS
Format/Info : Digital Theater Systems
Mode : 16
Format settings, Endianness : Big
Codec ID : A_DTS
Duration : 1h 55mn
Bit rate mode : Constant
Bit rate : 1 510 Kbps
Channel(s) : 6 channels
Channel positions : Front: L C R, Side: L R, LFE
Sampling rate : 48.0 KHz
Bit depth : 16 bits
Compression mode : Lossy
Stream size : 1.22 GiB (7%)
Language : English
Default : No
Forced : No
Text #1
ID : 11
Format : UTF-8
Codec ID : S_TEXT/UTF8
Codec ID/Info : UTF-8 Plain Text
Language : Russian
Default : No
Forced : No
Text #2
ID : 12
Format : UTF-8
Codec ID : S_TEXT/UTF8
Codec ID/Info : UTF-8 Plain Text
Language : Russian
Default : No
Forced : No
Text #3
ID : 13
Format : UTF-8
Codec ID : S_TEXT/UTF8
Codec ID/Info : UTF-8 Plain Text
Language : Ukrainian
Default : No
Forced : No
Text #4
ID : 14
Format : UTF-8
Codec ID : S_TEXT/UTF8
Codec ID/Info : UTF-8 Plain Text
Language : English
Default : No
Forced : No
Text #5
ID : 15
Format : UTF-8
Codec ID : S_TEXT/UTF8
Codec ID/Info : UTF-8 Plain Text
Language : French
Default : No
Forced : No
Text #6
ID : 16
Format : UTF-8
Codec ID : S_TEXT/UTF8
Codec ID/Info : UTF-8 Plain Text
Language : Romanian
Default : No
Forced : No
Menu
00:00:00.000 : :00:00:00.000
00:10:03.394 : :00:10:03.394
00:28:25.913 : :00:28:25.913
00:42:52.528 : :00:42:52.528
00:57:22.981 : :00:57:22.981
01:09:02.597 : :01:09:02.597
01:22:53.302 : :01:22:53.302
01:34:51.144 : :01:34:51.144
01:40:36.572 : :01:40:36.572
01:48:10.526 : :01:48:10.526

Скриншоты

- ЦитатаКто-то писал:Сохранены оригинальные чаптеры как на Blu-ray.
За украинскую дорогу большое спасибо hurtom.
[Профиль] [ЛС]
Показать сообщения:    

Текущее время: Сегодня 12:14

Часовой пояс: GMT



Вы не можете начинать темы
Вы не можете отвечать на сообщения
Вы не можете редактировать свои сообщения
Вы не можете удалять свои сообщения
Вы не можете голосовать в опросах
Вы не можете прикреплять файлы к сообщениям
Вы не можете скачивать файлы