Возвращение реаниматора / Beyond Re-Animator (2003) HDRip-AVC | P

 
Автор Сообщение

Swager ®

Пол:

Стаж: 3 года 1 месяц

Сообщений: 1930



Награды: 4 (Подробнее)

Mega Seeder 2 (Количество: 1) За внесенный вклад в развитие сайта (Количество: 1) Top Releaser 2 (Количество: 1)
Торрент-статистика

Создавать темы 14-Июн-2018 08:01

[Цитировать]

Информация о фильме
Название: Возвращение реаниматора
Оригинальное название: Beyond Re-Animator
Год выхода: 2003
Жанр: Ужасы, фантастика, комедия
Режиссер: Брайан Юзна
В ролях: Джеффри Комбс, Брюс Эбботт, Барбара Крэмптон, Дэвид Гэйл, Роберт Сэмпсон, Джерри Блэк, Кэролин Пёрди-Гордон, Питер Кент, Йен Патрик Уильямс
О фильме :
Опыты Герберта Уэста привлекают внимание полиции, в результате чего он осуждён и отбывает наказание в тюрьме. Однако и в тюрьме Уэст фанатично продолжает свои эксперименты, но уже только на крысах. После продолжительных экспериментов Уэст вроде бы находит некую субстанцию, названную им наноплазм, которая покидает тело человека после его смерти. Вскоре в тюрьме появляется врач-практикант и заинтересовывается экспериментами Уэста. Вместе они создают лабораторию в подвале тюрьмы и начинают проводить опыты над заключёнными. Первоначальные опыты подтверждают теорию Уэста и умершие люди оживают, да к тому же обретают разум. Однако не всё так просто — через некоторое время ожившие всё-таки теряют над собой контроль и превращаются в зомби. Ситуация лаборатории выходит из-под контроля и тюрьма оккупируется толпой зомби.

Страна: Испания
Студия: Empire Pictures, Castelao Producciones, Fantastic Factory, Filmax, Vía Digital
Продолжительность: 01:32:07
Перевод: Профессиональный (многоголосый, закадровый)
Файл
Формат: MKV
Качество: HDRip-AVC
Видео: MPEG-4 AVC, 752x424, ~ 1055 Кбит/с
Аудио: AAC-HE, 2 ch, ~ 76 Кбит/с
Субтитры: Нет

MI

Общее
Уникальный идентификатор : 212415885247457993076617290905430992206 (0x9FCDCFB85069EFF1AF36B0E6929B254E)
Полное имя : D:MOVIESBeyond Re-Animator.2003.ExKinoRay.mkv
Формат : Matroska
Версия формата : Version 4 / Version 2
Размер файла : 746 Мбайт
Продолжительность : 1 ч. 32 м.
Общий поток : 1132 Кбит/сек
Дата кодирования : UTC 2018-06-14 05:17:21
Программа кодирования : mkvmerge v15.0.0 ('Duel with the Devil') 64-bit
Библиотека кодирования : libebml v1.3.5 + libmatroska v1.4.5
Видео
Идентификатор : 1
Формат : AVC
Формат/Информация : Advanced Video Codec
Профиль формата : High@L4.1
Параметр CABAC формата : Да
Параметр RefFrames формата : 10 кадров
Идентификатор кодека : V_MPEG4/ISO/AVC
Продолжительность : 1 ч. 32 м.
Битрейт : 1055 Кбит/сек
Ширина : 752 пикселя
Высота : 424 пикселя
Соотношение сторон : 16:9
Режим частоты кадров : Постоянный
Частота кадров : 25,000 кадров/сек
Цветовое пространство : YUV
Субдискретизация насыщенности : 4:2:0
Битовая глубина : 8 бит
Тип развёртки : Прогрессивная
Бит/(Пиксели*Кадры) : 0.132
Размер потока : 695 Мбайт (93%)
Библиотека кодирования : x264 core 152 r2851kMod ba24899
Настройки программы : cabac=1 / ref=10 / deblock=1:-3:-2 / analyse=0x3:0x133 / me=umh / subme=11 / psy=1 / fade_compensate=0.00 / psy_rd=1.00:0.15 / mixed_ref=1 / me_range=32 / chroma_me=1 / trellis=2 / 8x8dct=1 / cqm=0 / deadzone=21,11 / fast_pskip=0 / chroma_qp_offset=-3 / threads=6 / lookahead_threads=1 / sliced_threads=0 / nr=0 / decimate=0 / interlaced=0 / bluray_compat=0 / constrained_intra=0 / bframes=10 / b_pyramid=2 / b_adapt=2 / b_bias=0 / direct=3 / weightb=1 / open_gop=0 / weightp=2 / keyint=250 / keyint_min=24 / scenecut=40 / intra_refresh=0 / rc_lookahead=40 / rc=2pass / mbtree=1 / bitrate=1055 / ratetol=1.0 / qcomp=0.60 / qpmin=0 / qpmax=69 / qpstep=4 / cplxblur=20.0 / qblur=0.5 / vbv_maxrate=50000 / vbv_bufsize=62500 / nal_hrd=none / filler=0 / ip_ratio=1.40 / aq=3:1.00
Default : Да
Forced : Нет
Аудио
Идентификатор : 2
Формат : AAC
Формат/Информация : Advanced Audio Codec
Профиль формата : HE-AAC / LC
Идентификатор кодека : A_AAC
Продолжительность : 1 ч. 32 м.
Битрейт : 76,0 Кбит/сек
Каналы : 2 канала
Расположение каналов : Front: L R
Частота : 48,0 КГц / 24,0 КГц
Частота кадров : 23,438 кадра/сек (1024 SPF)
Метод сжатия : С потерями
Задержка видео : 31 мс.
Размер потока : 50,1 Мбайт (7%)
Default : Да
Forced : Нет

Скриншоты


[Профиль] [ЛС]
Показать сообщения:    

Текущее время: Сегодня 12:20

Часовой пояс: GMT



Вы не можете начинать темы
Вы не можете отвечать на сообщения
Вы не можете редактировать свои сообщения
Вы не можете удалять свои сообщения
Вы не можете голосовать в опросах
Вы не можете прикреплять файлы к сообщениям
Вы не можете скачивать файлы