Возвращение Джафара / The Return of Jafar (1994) BDRip 720p | D

 
Автор Сообщение

Russian Mafia ®

Пол:

Стаж: 1 год 8 месяцев

Сообщений: 4256



Награды: 10 (Подробнее)

Top Releaser 2 (Количество: 1) Top Releaser 3 (Количество: 1) Top Releaser 5 (Количество: 1)
Торрент-статистика

Создавать темы 13-Апр-2016 10:42

[Цитировать]

-- --Возвращение Джафара-- Год выпуска: 1994
Страна: США
Жанр: мультфильм, комедия, приключения
Продолжительность: 01:06:16
Перевод: Дублированный-Режиссер: Тоби Шелтон, Алан Заслов, Тэд Стоунс
В ролях: Джейсон Александер, Джонатан Фриман, Джефф Беннетт, Гилберт Готтфрид, Вэл Бэттин, Брэд Кэйн, Лиз Колэуэй, Линда Ларкин, Дэн Кастелланета, Б.Дж. Уорд.-Описание: Вторая часть захватывающей трилогии о храбром уличном воришке начинается
прямо там, где закончился первый мультфильм. Уже казалось бы, что черному чародею и новоявленному
джинну Джафару суждено навеки остаться пленником волшебной лампы, — но ему удается освободиться!
И на уме у коварного злодея лишь одно: он жаждет отомстить Аладдину.

Качество видео: BDRip 720
Видео: AVC, 1280x720, 23.976 fps, 2969 kbps
Аудио #1: AC3, 2/0 ch, 192 kbps;
Субтитры: | Отсутствуют |

Знаете ли вы, что...

1. Это первый сиквел Диснея выпущенный сразу на видео.
2. Робин Уильямс отказался принимать участие в проекте из-за разногласий с Диснеем.

Скриншоты

MediaInfo

Общее
Уникальный идентификатор : 248202703625450726959327028065776337110 (0xBABA1A175D49EA498DC3A2819F8A80D6)
Формат : Matroska
Версия формата : Version 4 / Version 2
Размер файла : 1,53 Гбайт
Продолжительность : 1 ч. 9 м.
Общий поток : 3162 Кбит/сек
Дата кодирования : UTC 2016-04-13 05:42:12
Программа кодирования : mkvmerge v8.9.0 ('Father Daughter') 64bit
Библиотека кодирования : libebml v1.3.3 + libmatroska v1.4.4
Видео
Идентификатор : 1
Формат : AVC
Формат/Информация : Advanced Video Codec
Профиль формата : High@L4.1
Параметр CABAC формата : Да
Параметр ReFrames формата : 5 кадров
Идентификатор кодека : V_MPEG4/ISO/AVC
Продолжительность : 1 ч. 9 м.
Битрейт : 2969 Кбит/сек
Ширина : 1280 пикселей
Высота : 720 пикселей
Соотношение сторон : 16:9
Режим частоты кадров : Постоянный
Частота кадров : 23,976 кадра/сек
Цветовое пространство : YUV
Субдискретизация насыщенности : 4:2:0
Битовая глубина : 8 бит
Тип развёртки : Прогрессивная
Бит/(Пиксели*Кадры) : 0.134
Размер потока : 1,44 Гбайт (94%)
Библиотека кодирования : x264 core 148 r2638 7599210
Настройки программы : cabac=1 / ref=5 / deblock=1:0:0 / analyse=0x3:0x133 / me=umh / subme=8 / psy=1 / psy_rd=1.00:0.00 / mixed_ref=1 / me_range=16 / chroma_me=1 / trellis=1 / 8x8dct=1 / cqm=0 / deadzone=21,11 / fast_pskip=0 / chroma_qp_offset=-2 / threads=12 / lookahead_threads=2 / sliced_threads=0 / nr=0 / decimate=1 / interlaced=0 / bluray_compat=0 / constrained_intra=0 / bframes=3 / b_pyramid=2 / b_adapt=1 / b_bias=0 / direct=1 / weightb=1 / open_gop=0 / weightp=2 / keyint=250 / keyint_min=23 / scenecut=40 / intra_refresh=0 / rc_lookahead=40 / rc=2pass / mbtree=1 / bitrate=2969 / ratetol=1.0 / qcomp=0.60 / qpmin=0 / qpmax=69 / qpstep=4 / cplxblur=20.0 / qblur=0.5 / ip_ratio=1.40 / aq=1:1.00
Язык : English
Default : Да
Forced : Нет
Аудио
Идентификатор : 2
Формат : AC-3
Формат/Информация : Audio Coding 3
Расширение режима : CM (complete main)
Параметр Endianness формата : Big
Идентификатор кодека : A_AC3
Продолжительность : 1 ч. 9 м.
Вид битрейта : Постоянный
Битрейт : 192 Кбит/сек
Каналы : 2 канала
Расположение каналов : Front: L R
Частота : 48,0 КГц
Частота кадров : 31,250 кадров/сек (1536 spf)
Метод сжатия : С потерями
Размер потока : 94,9 Мбайт (6%)
Default : Да
Forced : Нет
[Профиль] [ЛС]
Кто просматривает тему:

Форум Тема Автор Размер
Other genres (Disco) VA - Star Hit - The best of 80s Vol.1-2 (80-e возвращаются и Суперхиты 80-х) - 2011, MP3, 320 kbps 2v2w 414 MB
Action FPS (1st Person) Metro 2033 - Redux / Метро 2033. Возвращение [L|GOG] [RUS|Multi10/RUS|Multi7] (2014) (v.1.0.0.3u5) TorrentFilm 6.82 GB
National Geographic NG: Исследователь 2.0: Бирма (Точка невозврата) [сезон 8 эпизод 09] / Explorer. Point of No Return (Todd Hermann) [2016 г., Документальный, научно-попупулярный, HDTVRip 720p] skorpionN 1.44 GB
S.T.A.L.K.E.R. S.T.A.L.K.E.R.: Shadow of Chernobyl - Путь Человека "Возвращение" (2015) PC | RePack by SeregA-Lus Garik014 5.08 GB
Фантастика, фэнтези Артем Каменистый - Возвращение к вершинам (2016) FB2 достали все 2 MB
Фильмы 2015 года Белые росы. Возвращение (2014) TVRip достали все 815 MB
Документальные HD Большое путешествие вглубь океанов: Возвращение / Tortuga - The Incredible Trip of the Sea Turtle (2009) BDRip от -=HD-NET=- sergej644 1.08 GB
Сатира и юмор Борис Леонтьев - Триумф великого комбинатора, или Возвращение Остапа Бендера [Григорий Шевчук, 2006] Magnat 558 MB
Показать сообщения:    

Текущее время: Сегодня 08:57

Часовой пояс: GMT



Вы не можете начинать темы
Вы не можете отвечать на сообщения
Вы не можете редактировать свои сообщения
Вы не можете удалять свои сообщения
Вы не можете голосовать в опросах
Вы не можете прикреплять файлы к сообщениям
Вы не можете скачивать файлы