Возвращение героя / The Last Stand (Ким Чжи Ун / Kim Ji Woon) [2013, США, боевик, триллер, криминал, BDRip 1080p] [US transfer] Dub + AVO (Гаврилов) + AVO (Горчаков) + VO (Чадов) + Original (Eng) + Sub (Rus, Eng)

 
Автор Сообщение

reversefile ®

Пол:

Стаж: 4 года 5 месяцев

Сообщений: 842

Откуда: ReverseFile.org



Награды: Нет

Торрент-статистика

Создавать темы 11-Авг-2014 10:40

[Цитировать]

Возвращение героя / The Last Stand
Страна: США
Студия: Di Bonaventura Pictures
Жанр: боевик, триллер, криминал
Год выпуска: 2013
Продолжительность: 01:47:13
Перевод 1: Профессиональный (дублированный) [Blu-ray Rus]
Перевод 2: Авторский (одноголосый закадровый) [А. Гаврилов]
Перевод 3: Авторский (одноголосый закадровый) [В. Горчаков]
Перевод 4: Одноголосый закадровый [М. Чадов] Цензурная версия
Перевод 5: Одноголосый закадровый [М. Чадов] Нецензурная версия
Оригинальная аудиодорожка: английская
Cубтитры: русские (Forced, Full), английские (Full, SDH, SDH Colored)
Режиссер: Ким Чжи Ун / Kim Ji Woon
В ролях: Арнольд Шварценеггер, Джейми Александр, Форест Уитакер, Джонни Ноксвилл, Родриго Санторо, Луис Гузман, Эдуардо Норьега, Петер Стормаре, Зак Гилфорд, Генезис Родригез, Сонни Лэндэм, Гарри Дин Стэнтон, Джон Патрик Амедори, Дэниэл Хенни, Титос Менчаса, Ричард Диллард, Мэтью Грир, Крис Браунинг, Кристиана Люкас, Рио Александр
Описание: Опасная и жестокая банда наркоторговцев сбегает из-под конвоя ФБР. Прихватив заложника, они мчатся к мексиканской границе на бронированной, оснащенной первоклассным вооружением машине. У них на пути стоит лишь тихий городок, за порядком в котором следит шериф Оуенс. Когда-то он был одним из лучших полицейских Лос-Анджелеса, теперь он вернулся.

Релиз: fanatus
Качество видео: BDRip 1080p
Исходник: THE_LAST_STAND_US_REMUX_HDCLUB
Контейнер: MKV
Видео: MPEG-4 AVC, 9999 kbps , 1920x800 (2.40:1), 23.976 fps, 0.272 bit/pixel
Аудио 1: русский (DTS, 6 ch, 48 kHz, 1510 kbps) Dub (Blu-ray Rus)
Аудио 2: русский (DTS, 6 ch, 48 kHz, 1510 kbps) AVO (Gavrilov)
Аудио 3: русский (DTS, 6 ch, 48 kHz, 1510 kbps) AVO (Gorchakov)
Аудио 4: русский (DTS, 6 ch, 48 kHz, 1510 kbps) VO (Chadov) Cenzurnaja versija
Аудио 5: русский (DTS, 6 ch, 48 kHz, 1510 kbps) VO (Chadov) Necenzurnaja versija
Аудио 6: английский (DTS, 6 ch, 48 kHz, 1510 kbps) Original
Формат субтитров: softsub (SRT)
Главы: есть

MediaInfo

General
Unique ID : 193841218706538275703985684937955117797 (0x91D475F420B3BCDEBDCF29E206C08AE5)
Complete name : E:\The Last Stand.2013.x264.BDRip.1080p.fanatus.mkv
Format : Matroska
Format version : Version 2
File size : 14.3 GiB
Duration : 1h 47mn
Overall bit rate : 19.1 Mbps
Movie name : The Last Stand (2013) - fanatus
Encoded date : UTC 2013-09-02 04:07:45
Writing application : mkvmerge v3.4.0 ('Rapunzel') сборка от May 15 2010 09:38:20
Writing library : libebml v0.8.0 + libmatroska v0.9.0
Video
ID : 1
Format : AVC
Format/Info : Advanced Video Codec
Format profile : High@L4.1
Format settings, CABAC : Yes
Format settings, ReFrames : 5 frames
Codec ID : V_MPEG4/ISO/AVC
Duration : 1h 47mn
Bit rate : 9 999 Kbps
Width : 1 920 pixels
Height : 800 pixels
Display aspect ratio : 2.40:1
Frame rate : 23.976 fps
Color space : YUV
Chroma subsampling : 4:2:0
Bit depth : 8 bits
Scan type : Progressive
Bits/(Pixel*Frame) : 0.272
Stream size : 7.20 GiB (50%)
Title : The Last Stand (2013)
Writing library : x264 core 132 r2323+704+51 d571b1c tMod [8-bit@all X86]
Encoding settings : cabac=1 / ref=5 / deblock=1:-3:-3 / analyse=0x3:0x113 / me=tesa / subme=11 / psy=1 / fade_compensate=0.00 / psy_rd=1.04:0.00 / mixed_ref=1 / me_range=48 / chroma_me=1 / trellis=2 / 8x8dct=1 / cqm=0 / deadzone=21,11 / fast_pskip=0 / chroma_qp_offset=-2 / threads=9 / lookahead_threads=1 / sliced_threads=0 / nr=0 / decimate=0 / interlaced=0 / bluray_compat=0 / constrained_intra=0 / fgo=0 / bframes=8 / b_pyramid=2 / b_adapt=2 / b_bias=0 / direct=3 / weightb=1 / open_gop=0 / weightp=2 / keyint=240 / keyint_min=23 / scenecut=40 / intra_refresh=0 / rc_lookahead=240 / rc=2pass / mbtree=0 / bitrate=9999 / ratetol=1.0 / qcomp=0.80 / qpmin=0 / qpmax=69 / qpstep=4 / cplxblur=20.0 / qblur=0.5 / vbv_maxrate=50000 / vbv_bufsize=62500 / nal_hrd=none / ip_ratio=1.40 / pb_ratio=1.30 / aq=4:0.80 / aq-sensitivity=10.00 / aq-factor=1.00:1.00:1.00 / aq2=0 / aq3=0
Language : English
Default : Yes
Forced : No
Audio #1
ID : 2
Format : DTS
Format/Info : Digital Theater Systems
Codec ID : A_DTS
Duration : 1h 47mn
Bit rate mode : Constant
Bit rate : 1 510 Kbps
Channel(s) : 6 channels
Channel positions : Front: L C R, Side: L R, LFE
Sampling rate : 48.0 KHz
Bit depth : 16 bits
Compression mode : Lossy
Stream size : 1.13 GiB (8%)
Title : Dub (Blu-ray)
Language : Russian
Default : Yes
Forced : No
Audio #2
ID : 3
Format : DTS
Format/Info : Digital Theater Systems
Codec ID : A_DTS
Duration : 1h 47mn
Bit rate mode : Constant
Bit rate : 1 510 Kbps
Channel(s) : 6 channels
Channel positions : Front: L C R, Side: L R, LFE
Sampling rate : 48.0 KHz
Bit depth : 24 bits
Compression mode : Lossy
Stream size : 1.13 GiB (8%)
Title : AVO (Gavrilov)
Language : Russian
Default : No
Forced : No
Audio #3
ID : 4
Format : DTS
Format/Info : Digital Theater Systems
Codec ID : A_DTS
Duration : 1h 47mn
Bit rate mode : Constant
Bit rate : 1 510 Kbps
Channel(s) : 6 channels
Channel positions : Front: L C R, Side: L R, LFE
Sampling rate : 48.0 KHz
Bit depth : 24 bits
Compression mode : Lossy
Stream size : 1.13 GiB (8%)
Title : AVO (Gorchakov)
Language : Russian
Default : No
Forced : No
Audio #4
ID : 5
Format : DTS
Format/Info : Digital Theater Systems
Codec ID : A_DTS
Duration : 1h 47mn
Bit rate mode : Constant
Bit rate : 1 510 Kbps
Channel(s) : 6 channels
Channel positions : Front: L C R, Side: L R, LFE
Sampling rate : 48.0 KHz
Bit depth : 24 bits
Compression mode : Lossy
Stream size : 1.13 GiB (8%)
Title : VO (Chadov) Cenzurnaja versija
Language : Russian
Default : No
Forced : No
Audio #5
ID : 6
Format : DTS
Format/Info : Digital Theater Systems
Codec ID : A_DTS
Duration : 1h 47mn
Bit rate mode : Constant
Bit rate : 1 510 Kbps
Channel(s) : 6 channels
Channel positions : Front: L C R, Side: L R, LFE
Sampling rate : 48.0 KHz
Bit depth : 24 bits
Compression mode : Lossy
Stream size : 1.13 GiB (8%)
Title : VO (Chadov) Necenzurnaja versija
Language : Russian
Default : No
Forced : No
Audio #6
ID : 7
Format : DTS
Format/Info : Digital Theater Systems
Codec ID : A_DTS
Duration : 1h 47mn
Bit rate mode : Constant
Bit rate : 1 510 Kbps
Channel(s) : 6 channels
Channel positions : Front: L C R, Side: L R, LFE
Sampling rate : 48.0 KHz
Bit depth : 24 bits
Compression mode : Lossy
Stream size : 1.13 GiB (8%)
Title : Original
Language : English
Default : No
Forced : No
Text #1
ID : 8
Format : UTF-8
Codec ID : S_TEXT/UTF8
Codec ID/Info : UTF-8 Plain Text
Title : Forced
Language : Russian
Default : Yes
Forced : Yes
Text #2
ID : 9
Format : UTF-8
Codec ID : S_TEXT/UTF8
Codec ID/Info : UTF-8 Plain Text
Title : Full
Language : Russian
Default : No
Forced : No
Text #3
ID : 10
Format : UTF-8
Codec ID : S_TEXT/UTF8
Codec ID/Info : UTF-8 Plain Text
Title : Full
Language : English
Default : No
Forced : No
Text #4
ID : 11
Format : UTF-8
Codec ID : S_TEXT/UTF8
Codec ID/Info : UTF-8 Plain Text
Title : SDH
Language : English
Default : No
Forced : No
Text #5
ID : 12
Format : UTF-8
Codec ID : S_TEXT/UTF8
Codec ID/Info : UTF-8 Plain Text
Title : SDH Colored
Language : English
Default : No
Forced : No
Menu
00:00:00.000 : en:Chapter 01
00:03:57.028 : en:Chapter 02
00:13:09.955 : en:Chapter 03
00:18:55.760 : en:Chapter 04
00:25:51.507 : en:Chapter 05
00:30:48.889 : en:Chapter 06
00:36:10.835 : en:Chapter 07
00:47:04.029 : en:Chapter 08
00:50:23.312 : en:Chapter 09
00:59:50.337 : en:Chapter 10
01:07:37.470 : en:Chapter 11
01:14:32.426 : en:Chapter 12
01:21:47.027 : en:Chapter 13
01:25:38.008 : en:Chapter 14
01:28:49.908 : en:Chapter 15
01:34:31.332 : en:Chapter 16

x264 [info]

x264 [info]: 1920x800p 1:1 @ 24000/1001 fps (cfr)
x264 [info]: frame I:1278 Avg QP:13.01 size:209875
x264 [info]: frame P:47831 Avg QP:15.69 size: 85585
x264 [info]: frame B:105135 Avg QP:17.40 size: 34978
x264 [info]: consecutive B-frames: 9.6% 7.9% 16.4% 18.1% 15.6% 25.2% 3.9% 2.0% 1.2%
x264 [info]: mb I I16..4: 19.7% 62.9% 17.4%
x264 [info]: mb P I16..4: 6.6% 23.7% 2.6% P16..4: 24.6% 26.4% 7.9% 0.0% 0.0% skip: 8.3%
x264 [info]: mb B I16..4: 1.1% 2.8% 0.2% B16..8: 32.2% 20.2% 3.6% direct: 9.5% skip:30.4% L0:42.9% L1:42.7% BI:14.5%
x264 [info]: 8x8 transform intra:70.8% inter:50.3%
x264 [info]: direct mvs spatial:98.3% temporal:1.7%
x264 [info]: coded y,uvDC,uvAC intra: 88.1% 85.9% 76.6% inter: 33.4% 33.5% 19.7%
x264 [info]: i16 v,h,dc,p: 14% 13% 16% 56%
x264 [info]: i8 v,h,dc,ddl,ddr,vr,hd,vl,hu: 9% 11% 12% 9% 11% 11% 11% 12% 15%
x264 [info]: i4 v,h,dc,ddl,ddr,vr,hd,vl,hu: 10% 12% 18% 7% 12% 11% 11% 8% 11%
x264 [info]: i8c dc,h,v,p: 53% 18% 13% 15%
x264 [info]: Weighted P-Frames: Y:2.3% UV:1.5%
x264 [info]: ref P L0: 53.4% 8.4% 21.4% 8.0% 7.1% 1.7% 0.0%
x264 [info]: ref B L0: 74.7% 18.1% 5.6% 1.7%
x264 [info]: ref B L1: 92.3% 7.7%
x264 [info]: kb/s:9997.15
x264 [info]: encoded 154244 frames, 1.565 fps, 9997.15 kb/s, 7666.9 MB

Скриншот c названием фильма

Сравнение

RU vs US

kaspr [RU] vs fanatus [US] vs source





[Профиль] [ЛС]
Кто просматривает тему:

Форум Тема Автор Размер
Other genres (Disco) VA - Star Hit - The best of 80s Vol.1-2 (80-e возвращаются и Суперхиты 80-х) - 2011, MP3, 320 kbps 2v2w 414 MB
Action FPS (1st Person) Metro 2033 - Redux / Метро 2033. Возвращение [L|GOG] [RUS|Multi10/RUS|Multi7] (2014) (v.1.0.0.3u5) TorrentFilm 6.82 GB
National Geographic NG: Исследователь 2.0: Бирма (Точка невозврата) [сезон 8 эпизод 09] / Explorer. Point of No Return (Todd Hermann) [2016 г., Документальный, научно-попупулярный, HDTVRip 720p] skorpionN 1.44 GB
S.T.A.L.K.E.R. S.T.A.L.K.E.R.: Shadow of Chernobyl - Путь Человека "Возвращение" (2015) PC | RePack by SeregA-Lus Garik014 5.08 GB
Фантастика, фэнтези Артем Каменистый - Возвращение к вершинам (2016) FB2 достали все 2 MB
Фильмы 2015 года Белые росы. Возвращение (2014) TVRip достали все 815 MB
Документальные HD Большое путешествие вглубь океанов: Возвращение / Tortuga - The Incredible Trip of the Sea Turtle (2009) BDRip от -=HD-NET=- sergej644 1.08 GB
Сатира и юмор Борис Леонтьев - Триумф великого комбинатора, или Возвращение Остапа Бендера [Григорий Шевчук, 2006] Magnat 558 MB
Показать сообщения:    

Текущее время: Сегодня 14:44

Часовой пояс: GMT



Вы не можете начинать темы
Вы не можете отвечать на сообщения
Вы не можете редактировать свои сообщения
Вы не можете удалять свои сообщения
Вы не можете голосовать в опросах
Вы не можете прикреплять файлы к сообщениям
Вы не можете скачивать файлы