Возвращение в Хэллоуинтаун / Return To Halloweentown (Дэвид Джексон / David Jackson) [2006, США, фэнтези, комедия, DVDRip-AVC] DUB + DVO + Original Eng + Eng sub

 
Автор Сообщение

TorrentFilm ®

Пол:

Стаж: 2 года

Сообщений: 7741



Награды: Нет

Торрент-статистика

Создавать темы 12-Ноя-2015 00:09

[Цитировать]

Возвращение в Хэллоуинтаун / Return To Halloweentown- Страна: США
Студия: Disney Channel, Just Singer Entertainment
Жанр: фэнтези, комедия
Год выпуска: 2006
Продолжительность: 01:27:48-Перевод 1: Профессиональный (дублированный) - Студия "Невафильм" / Канал "Disney"
Перевод 2: Профессиональный (двухголосый закадровый)
Cубтитры: английские
Оригинальная аудиодорожка: английский-Режиссер: Дэвид Джексон / David Jackson
В ролях: Сара Пикстон, Джудит Хайдж, Лукас Грибел, Робин Де Сантис, Даррен Юинг, Чейен Холл- | Релиз: -Описание: Марни Пипер со своим другом Дилланом приезжают учиться в престижную «Школу ведьм Хэллоуинтауна», основанную в семейном замке Кромвелл. Там они встречают «Зловещих сестер» и Диллан сразу же влюбляется в одну из них. В школе объявляют новые правила - никокого волшебства. Марни этим недовольна, ведь она приeхала в школу учиться волшебству! Марни находит священный амулет семьи Кромвеллов, который в коварных целях хотят использовать «Зловещие сестры», и теперь Марни вместе с Дилланом предстоит разгодать тайну священного амулета и спасти ХэллоуинTаун от сестер...-Семпл: http://sendfile.su/1170137-Тип релиза: DVDRip-AVC
Контейнер: MKV
Видео: 720x480 (4:3) @ 640x480, 23.976 fps, AVC, ~2031 kbps, 0.245 bits/pixel
Аудио 1: Russian, 48.0 KHz, AC3, 1 ch, 192 kbps - Дубляж | Студия "Невафильм" / Канал "Disney"
Аудио 2: Russian, 48.0 KHz, AC3, 2 ch, 192 kbps - DVO
Аудио 3: English, 48.0 KHz, AC3, 6 ch, 384 kbps - Original

MediaInfox264.log

x264 [info]: 720x480p 8:9 @ 24000/1001 fps (cfr)
x264 [info]: using SAR=8/9
x264 [info]: using cpu capabilities: MMX2 SSE2Fast SSSE3 SSE4.2 AVX
x264 [info]: profile High, level 4.0
x264 [info]: cabac=1 ref=16 deblock=1:-2:-1 analyse=0x3:0x133 me=umh subme=11 psy=1 fade_compensate=0.00 psy_rd=1.00:0.00 mixed_ref=1 me_range=48 chroma_me=1 trellis=2 8x8dct=1 cqm=0 deadzone=21,11 fast_pskip=0 chroma_qp_offset=-2 threads=12 lookahead_threads=3 sliced_threads=0 nr=0 decimate=1 interlaced=0 bluray_compat=0 constrained_intra=0 fgo=0 bframes=10 b_pyramid=2 b_adapt=2 b_bias=0 direct=3 weightb=1 open_gop=0 weightp=2 keyint=250 keyint_min=23 scenecut=40 intra_refresh=0 rc=crf mbtree=0 crf=18.0000 qcomp=0.60 qpmin=0 qpmax=69 qpstep=4 ip_ratio=1.40 pb_ratio=1.30 aq=1:0.90
x264 [info]: frame I:1549 Avg QP:19.03 size: 46570
x264 [info]: frame P:31124 Avg QP:20.67 size: 20497
x264 [info]: frame B:93655 Avg QP:23.20 size: 7069
x264 [info]: consecutive B-frames: 3.5% 4.2% 14.4% 22.1% 20.7% 32.2% 2.0% 0.3% 0.2% 0.0% 0.2%
x264 [info]: mb I I16..4: 2.3% 89.2% 8.5%
x264 [info]: mb P I16..4: 0.6% 14.3% 1.1% P16..4: 31.2% 33.7% 14.1% 1.2% 0.1% skip: 3.7%
x264 [info]: mb B I16..4: 0.1% 1.7% 0.1% B16..8: 35.3% 20.3% 3.3% direct: 7.5% skip:31.7% L0:34.5% L1:38.0% BI:27.4%
x264 [info]: 8x8 transform intra:89.5% inter:71.4%
x264 [info]: direct mvs spatial:100.0% temporal:0.0%
x264 [info]: coded y,uvDC,uvAC intra: 91.4% 93.5% 73.1% inter: 33.6% 33.5% 4.4%
x264 [info]: i16 v,h,dc,p: 46% 13% 6% 35%
x264 [info]: i8 v,h,dc,ddl,ddr,vr,hd,vl,hu: 11% 8% 7% 10% 13% 13% 12% 13% 13%
x264 [info]: i4 v,h,dc,ddl,ddr,vr,hd,vl,hu: 12% 7% 4% 8% 15% 16% 13% 12% 11%
x264 [info]: i8c dc,h,v,p: 33% 23% 22% 22%
x264 [info]: Weighted P-Frames: Y:10.4% UV:7.4%
x264 [info]: ref P L0: 44.1% 14.6% 20.2% 4.7% 4.4% 2.4% 2.5% 1.2% 1.2% 0.9% 0.9% 0.7% 0.7% 0.5% 0.6% 0.4%
x264 [info]: ref B L0: 82.0% 10.1% 2.7% 1.5% 0.9% 0.8% 0.5% 0.4% 0.3% 0.3% 0.2% 0.2% 0.2% 0.1% 0.1%
x264 [info]: ref B L1: 96.0% 4.0%
x264 [info]: kb/s:2083.43
x264 [info]: encoded 126328 frames, 14.06 fps, 2083.43 kb/s, duration 2:29:47.66
GeneralUnique ID : 252817669532573846289781483536079755453 (0xBE32E97A4B175B269043F21F1F7D98BD)Complete name : Halloweentown.IV.Return.To.Halloweentown.2006.DVDRip.rutracker-xfiles.mkvFormat : MatroskaFormat version : Version 4 / Version 2File size : 1.75 GiBDuration : 1h 27mnOverall bit rate : 2 855 KbpsMovie name : Halloweentown.IV.Return.To.Halloweentown.2006.DVDRip.rutracker-xfilesEncoded date : UTC 2015-11-01 16:39:38Writing application : mkvmerge v8.3.0 ('Over the Horizon') 64bitWriting library : libebml v1.3.1 + libmatroska v1.4.2Attachements : x264.log / Cover.jpg / DVD Cover.jpg / DVD.jpg
VideoID : 1Format : AVCFormat/Info : Advanced Video CodecFormat profile : High@L4Format settings, CABAC : YesFormat settings, ReFrames : 16 framesCodec ID : V_MPEG4/ISO/AVCDuration : 1h 27mnBit rate : 2 031 KbpsWidth : 720 pixelsHeight : 480 pixelsDisplay aspect ratio : 4:3Frame rate mode : ConstantFrame rate : 23.976 fpsColor space : YUVChroma subsampling : 4:2:0Bit depth : 8 bitsScan type : ProgressiveBits/(Pixel*Frame) : 0.245Stream size : 1.25 GiB (71%)Title : http://torrentfilm.net/forum/viewtopic.php?t=5108715Writing library : x264 core 148 r2638kMod 7599210Encoding settings : cabac=1 / ref=16 / deblock=1:-2:-1 / analyse=0x3:0x133 / me=umh / subme=11 / psy=1 / fade_compensate=0.00 / psy_rd=1.00:0.00 / mixed_ref=1 /me_range=48 / chroma_me=1 / trellis=2 / 8x8dct=1 / cqm=0 / deadzone=21,11 / fast_pskip=0 / chroma_qp_offset=-2 / threads=12 / lookahead_threads=3 / sliced_threads=0 / nr=0 /decimate=1 / interlaced=0 / bluray_compat=0 / constrained_intra=0 / fgo=0 / bframes=10 / b_pyramid=2 / b_adapt=2 / b_bias=0 / direct=3 / weightb=1 / open_gop=0 / weightp=2 /keyint=250 / keyint_min=23 / scenecut=40 / intra_refresh=0 / rc=crf / mbtree=0 / crf=18.0000 / qcomp=0.60 / qpmin=0 / qpmax=69 / qpstep=4 / ip_ratio=1.40 / pb_ratio=1.30 / aq=1:0.90Language : EnglishDefault : YesForced : NoColor range : LimitedColor primaries : BT.601Transfer characteristics : BT.470 System B, BT.470 System GMatrix coefficients : BT.601
Audio #1ID : 2Format : AC-3Format/Info : Audio Coding 3Mode extension : CM (complete main)Format settings, Endianness : BigCodec ID : A_AC3Duration : 1h 27mnBit rate mode : ConstantBit rate : 192 KbpsChannel(s) : 1 channelChannel positions : Front: CSampling rate : 48.0 KHzCompression mode : LossyStream size : 121 MiB (7%)Title : Студия "Невафильм" / Канал "Disney"Language : RussianDefault : YesForced : No
Audio #2ID : 3Format : AC-3Format/Info : Audio Coding 3Mode extension : CM (complete main)Format settings, Endianness : BigCodec ID : A_AC3Duration : 1h 27mnBit rate mode : ConstantBit rate : 192 KbpsChannel(s) : 2 channelsChannel positions : Front: L RSampling rate : 48.0 KHzCompression mode : LossyStream size : 121 MiB (7%)Title : DVOLanguage : RussianDefault : NoForced : No
Audio #3ID : 4Format : AC-3Format/Info : Audio Coding 3Mode extension : CM (complete main)Format settings, Endianness : BigCodec ID : A_AC3Duration : 1h 27mnBit rate mode : ConstantBit rate : 384 KbpsChannel(s) : 6 channelsChannel positions : Front: L C R, Side: L R, LFESampling rate : 48.0 KHzCompression mode : LossyStream size : 241 MiB (13%)Title : OriginalLanguage : EnglishDefault : NoForced : No
TextID : 5Format : UTF-8Codec ID : S_TEXT/UTF8Codec ID/Info : UTF-8 Plain TextTitle : [SDH]Language : EnglishDefault : NoForced : No

Скриншоты

-Все фильмы цикла:
1. Хэллоуинтаун / Halloweentown (Дуэйн Данэм / Duwayne Dunham) [1998, США, комедия, приключения, семейный, фэнтези, DVDRip-AVC]
2. Хэллоуинтаун 2: Месть Калабара / Halloweentown II: Kalabar's Revenge (Мэри Ламберт / Mary Lambert) [2001, США, Фэнтези, комедия, приключения, семейный, DVDRip-AVC]
3. Хэллоуинтаун 3 / Halloweentown High (Марк А.З. Диппе / Mark A.Z. Dippe) [2004, США, фэнтези, комедия, DVDRip-AVC]
4. Возвращение в Хэллоуинтаун / Return To Halloweentown (Дэвид Джексон / David Jackson) [2006, США, фэнтези, комедия, DVDRip-AVC]
[Профиль] [ЛС]
Кто просматривает тему:

Форум Тема Автор Размер
Other genres (Disco) VA - Star Hit - The best of 80s Vol.1-2 (80-e возвращаются и Суперхиты 80-х) - 2011, MP3, 320 kbps 2v2w 414 MB
Action FPS (1st Person) Metro 2033 - Redux / Метро 2033. Возвращение [L|GOG] [RUS|Multi10/RUS|Multi7] (2014) (v.1.0.0.3u5) TorrentFilm 6.82 GB
National Geographic NG: Исследователь 2.0: Бирма (Точка невозврата) [сезон 8 эпизод 09] / Explorer. Point of No Return (Todd Hermann) [2016 г., Документальный, научно-попупулярный, HDTVRip 720p] skorpionN 1.44 GB
S.T.A.L.K.E.R. S.T.A.L.K.E.R.: Shadow of Chernobyl - Путь Человека "Возвращение" (2015) PC | RePack by SeregA-Lus Garik014 5.08 GB
Фантастика, фэнтези Артем Каменистый - Возвращение к вершинам (2016) FB2 достали все 2 MB
Фильмы 2015 года Белые росы. Возвращение (2014) TVRip достали все 815 MB
Документальные HD Большое путешествие вглубь океанов: Возвращение / Tortuga - The Incredible Trip of the Sea Turtle (2009) BDRip от -=HD-NET=- sergej644 1.08 GB
Сатира и юмор Борис Леонтьев - Триумф великого комбинатора, или Возвращение Остапа Бендера [Григорий Шевчук, 2006] Magnat 558 MB
Показать сообщения:    

Текущее время: Сегодня 23:28

Часовой пояс: GMT



Вы не можете начинать темы
Вы не можете отвечать на сообщения
Вы не можете редактировать свои сообщения
Вы не можете удалять свои сообщения
Вы не можете голосовать в опросах
Вы не можете прикреплять файлы к сообщениям
Вы не можете скачивать файлы