Возвращение высокого блондина / Le retour du grand blond (1974) BDRip [720p]

 
Автор Сообщение

sergej644 ®

Пол:

Стаж: 4 года 11 месяцев

Сообщений: 6038

Откуда: Soviet Union



Награды: Нет

Торрент-статистика

Создавать темы 18-Окт-2014 20:20

[Цитировать]

-Возвращение высокого блондина / Le retour du grand blond (1974) BDRip [720p]
« Суперагент снова в действии! »
- Год выпуска: 1974
Производство: Франция | Gaumont International, Films de la Guville
Жанр: Комедия
Режиссер: Ив Робер
Продюсер: Ален Пуаре, Ив Робер
Актеры: Пьер Ришар, Жан Карме, Жан Рошфор, Мирей Дарк, Жан Буиз, Поль Ле Персон, Колетт Кастель, Анри Гибе, Эрве Санд, Жан Амос, Антуан Бо, Андре Болле, Поль Бонифас, Мишель Франчини, Жак Жиро, Луи Наварр
Описание фильма: Шпионские игры продолжаются. Спецслужбы не могут оставить Перрена в покое - новый министр нашёл досье на высокого блондина, заведённое Бернаром Миланом, и следуя подсказке капитана Камбрэ, подозревающего Тулуза в фарсе с высоким блондином и убийстве Милана, приказывает полковнику Тулузу представить ему «суперагента». Тот в смятении придумывает историю о том, что блондин совсем недавно погиб при выполнении спецоперации в тропиках, но министр требует привести тело на родину для захоронения с почестями. Тулуз посылает своих людей в Рио-де-Жанейро, где Перрен живёт с Кристин, чтобы убить его. Блондин снова уходит от опасности, ни о чём не подозревая. Тогда Тулуз со своими агентами похищает Кристин, и теперь блондин вынужден выполнять его требования - приехать в Париж и разыграть из себя суперагента перед министром, что убедило бы его прекратить расследование убийства Милана. Министр намеревается послать «суперагента» на важное и очень опасное задание. Тулуз хочет избавиться от блондина, после того, как он сыграет свою роль, так как теперь он «слишком много знает». На помощь Перрену приходит его друг Морис…
Перевод: Профессиональный дублированный, профессиональный многоголосый- -Дата мировой премьеры: 18 декабря 1974
Дата выхода DVD релиза: 14 августа 2008, «Союз-Видео»
Продолжительность: 01:21:05
Возраст 12+: Зрителям, достигшим 12 лет
Рейтинг MPAA PG: Рекомендуется присутствие родителей
Качество видео: BDRip [720p]
Видео: MPEG-4 AVC/H.264, 7000 Kbps, 1194 x 720
Аудио 1: Русский AC3 2.0, 192 Kbps, 48.0 KHz (Полное дублирование) Союзмультфильм
Аудио 2: Русский AC3 2.0, 192 Kbps, 48.0 KHz (Многоголосый закадровый) Союз Видео-

MediaInfo

Общее
Полное имя : Возвращение высокого блондина.mkv
Формат : Matroska
Версия формата : Version 1
Размер файла : 4,18 Гбайт
Продолжительность : 1 ч. 21 м.
Общий поток : 7387 Кбит/сек
Дата кодирования : UTC 2014-10-17 04:47:42
Программа кодирования : mkvmerge v2.4.1 ('Use Me') built on Dec 5 2008 18:30:05
Библиотека кодирования : libebml v0.7.7 + libmatroska v0.8.1
Видео
Идентификатор : 1
Формат : AVC
Формат/Информация : Advanced Video Codec
Профиль формата : [url=mailto:High@L4.1]High@L4.1[/url]
Параметр CABAC формата : Да
Параметр ReFrames формата : 9 кадров
Идентификатор кодека : V_MPEG4/ISO/AVC
Продолжительность : 1 ч. 21 м.
Битрейт : 7000 Кбит/сек
Ширина : 1194 пикселя
Высота : 720 пикселей
Соотношение сторон : 1,658
Режим частоты кадров : Постоянный
Частота кадров : 24,000 кадра/сек
Цветовое пространство : YUV
Субдискретизация насыщенности : 4:2:0
Битовая глубина : 8 бит
Тип развёртки : Прогрессивная
Бит/(Пиксели*Кадры) : 0.339
Размер потока : 3,88 Гбайт (93%)
Заголовок : Возвращение высокого блондина (1974)
Библиотека кодирования : x264 core 142 r2431 ac76440
Настройки программы : cabac=1 / ref=9 / deblock=1:-3:-3 / analyse=0x3:0x133 / me=umh / subme=10 / psy=1 / psy_rd=1.00:0.10 / mixed_ref=1 / me_range=48 / chroma_me=1 / trellis=2 / 8x8dct=1 / cqm=0 / deadzone=21,11 / fast_pskip=0 / chroma_qp_offset=-3 / threads=6 / lookahead_threads=1 / sliced_threads=0 / nr=0 / decimate=1 / interlaced=0 / bluray_compat=0 / constrained_intra=0 / bframes=5 / b_pyramid=2 / b_adapt=2 / b_bias=0 / direct=3 / weightb=1 / open_gop=0 / weightp=2 / keyint=240 / keyint_min=22 / scenecut=40 / intra_refresh=0 / rc_lookahead=40 / rc=2pass / mbtree=1 / bitrate=7000 / ratetol=1.0 / qcomp=0.60 / qpmin=10 / qpmax=51 / qpstep=4 / cplxblur=20.0 / qblur=0.5 / ip_ratio=1.40 / aq=1:1.00
Язык : French
Аудио #1
Идентификатор : 2
Формат : AC-3
Формат/Информация : Audio Coding 3
Расширение режима : CM (complete main)
Параметр Endianness формата : Big
Идентификатор кодека : A_AC3
Продолжительность : 1 ч. 21 м.
Вид битрейта : Постоянный
Битрейт : 192 Кбит/сек
Каналы : 2 канала
Расположение каналов : Front: L R
Частота : 48,0 КГц
Битовая глубина : 16 бит
Метод сжатия : С потерями
Размер потока : 111 Мбайт (3%)
Заголовок : AC3 (Дублированный) Союзмультфильм
Язык : Russian
Аудио #2
Идентификатор : 3
Формат : AC-3
Формат/Информация : Audio Coding 3
Расширение режима : CM (complete main)
Параметр Endianness формата : Big
Идентификатор кодека : A_AC3
Продолжительность : 1 ч. 21 м.
Вид битрейта : Постоянный
Битрейт : 192 Кбит/сек
Каналы : 2 канала
Расположение каналов : Front: L R
Частота : 48,0 КГц
Битовая глубина : 16 бит
Метод сжатия : С потерями
Размер потока : 111 Мбайт (3%)
Заголовок : AC3 (Многоголосый) Союз Видео
Язык : Russian

Дополнительно

Несмотря на то, что действие фильма происходит 3 месяца спустя после первых событий, в реальности проходит лишь около 2 недель (Перрен прилетел первый раз в Орли 26 мая, в то время как его концерт проходил 6-го июня).
На то, что действие фильма происходит практически сразу после первого, а не через 3 месяца указывает также фотография Милана в бюро Тулуза с чёрной лентой.
В первом фильме Перрен прибывает в Париж 26 мая, в разговоре с Кристин она даёт понять, что текущий день - вторник, однако 26 мая 1972 - суббота.
Концерт Перрена проходил в субботу 6 июня, в то же время действие фильма происходит в 1972-м году, что невозможно - 6 июня приходилось на вторник.
В начале фильма Кристин поздравляет Франсуа с днём рождения, однако день рождения Франсуа 8 марта (согласно досье Милана из первого фильма), что указывает на то, что прошло не менее 9 месяцев с момента первого фильма, а в «неделе» разницы между визитом Тулуза к министру и концертом Перрена на самом деле около 3 месяцев (со дня рождения Франсуа 8 марта до его концерта 6 июня).
-Скриншоты:
[Профиль] [ЛС]
Кто просматривает тему:

Форум Тема Автор Размер
Other genres (Disco) VA - Star Hit - The best of 80s Vol.1-2 (80-e возвращаются и Суперхиты 80-х) - 2011, MP3, 320 kbps 2v2w 414 MB
Action FPS (1st Person) Metro 2033 - Redux / Метро 2033. Возвращение [L|GOG] [RUS|Multi10/RUS|Multi7] (2014) (v.1.0.0.3u5) TorrentFilm 6.82 GB
National Geographic NG: Исследователь 2.0: Бирма (Точка невозврата) [сезон 8 эпизод 09] / Explorer. Point of No Return (Todd Hermann) [2016 г., Документальный, научно-попупулярный, HDTVRip 720p] skorpionN 1.44 GB
S.T.A.L.K.E.R. S.T.A.L.K.E.R.: Shadow of Chernobyl - Путь Человека "Возвращение" (2015) PC | RePack by SeregA-Lus Garik014 5.08 GB
Фантастика, фэнтези Артем Каменистый - Возвращение к вершинам (2016) FB2 достали все 2 MB
Фильмы 2015 года Белые росы. Возвращение (2014) TVRip достали все 815 MB
Документальные HD Большое путешествие вглубь океанов: Возвращение / Tortuga - The Incredible Trip of the Sea Turtle (2009) BDRip от -=HD-NET=- sergej644 1.08 GB
Сатира и юмор Борис Леонтьев - Триумф великого комбинатора, или Возвращение Остапа Бендера [Григорий Шевчук, 2006] Magnat 558 MB
Показать сообщения:    

Текущее время: Сегодня 22:09

Часовой пояс: GMT



Вы не можете начинать темы
Вы не можете отвечать на сообщения
Вы не можете редактировать свои сообщения
Вы не можете удалять свои сообщения
Вы не можете голосовать в опросах
Вы не можете прикреплять файлы к сообщениям
Вы не можете скачивать файлы