Возвращение высокого блондина / Le retour du grand blond / The Return of the Tall Blond Man with One Black Shoe (1974) BDRemux [1080p]

 
Автор Сообщение

sergej644 ®

Пол:

Стаж: 4 года 11 месяцев

Сообщений: 6046

Откуда: Soviet Union



Награды: Нет

Торрент-статистика

Создавать темы 21-Июл-2014 10:40

[Цитировать]

-Возвращение высокого блондина / Le retour du grand blond / The Return of the Tall Blond Man with One Black Shoe (1974) BDRemux- Год выпуска: 1974
Производство: Франция / Films de la Guville, Gaumont International
Жанр: Комедия, детектив
Описание фильма:
Шпионские игры продолжаются. Спецслужбы не могут оставить Перрена в покое — новый министр нашёл досье на высокого блондина, заведённое Бернаром Миланом, и следуя подсказке капитана Камбрэ, подозревающего Тулуза в фарсе с высоким блондином и убийстве Милана, приказывает полковнику Тулузу представить ему «суперагента». Тот в смятении придумывает историю о том, что блондин совсем недавно погиб при выполнении спецоперации в тропиках, но министр требует привести тело на родину для захоронения с почестями. Тулуз посылает своих людей в Рио-де-Жанейро, где Перрен живёт с Кристин, чтобы убить его...
Режиссер: Ив Робер / Yves Robert
Продюсер: Ален Пуаре, Ив Робер
Актеры: Пьер Ришар, Жан Карме, Жан Рошфор, Мирей Дарк, Жан Буиз, Поль Ле Персон, Колетт Кастель, Анри Гибе, Эрве Санд, Жан Амос
Язык: Русский, французский
Перевод: Дублированный (со вставками двухголосого), Двухголосый закадровый (профессиональный)
Вид субтитров: Вшитые отключаемые
Язык субтитров: Английский, французский

За исходный материал большое спасибо: HDClub
Дата мировой премьеры: 18 декабря 1974
Дата выхода DVD релиза: 14 августа 2008, «Союз-Видео»
Рейтинг MPAA: PG
Возраст: 12+
Продолжительность: 01:21:05
Качество видео: BDRemux
Видео: MPEG-4 AVC/H.264 (High Profile 4.1), 1920x1080, ~31663 kbps, 0.624 bit/pixel, 24 fps
Аудио 1: AC3 2.0, 192 kbps, 48 kHz, 16-bit [Русский - дублированный «+ вставки DVO »]
Аудио 2: AC3 2.0, 192 kbps, 48 kHz, 16-bit [Русский - двухголосый закадровый «Союз Видео »]
Аудио 3: AC3 2.0, 192 kbps, 48 kHz, 16-bit [Украинский - двухголосый закадровый «2+2»]
Аудио 4: DTS-HD MA 2.0, 840 kbps, 48 kHz, 16-bit [Французский - оригинал]

Отчёт MediaInfo

Полное имя                               : D:\Возвращение.высокого.блондина-Le.retour.du.grand.blond.(1974).BDRemux.[1080p].mkv
Формат                                   : Matroska
Версия формата                           : Version 2
Размер файла                             : 18,7 Гбайт
Продолжительность                        : 1 ч. 21 м.
Режим общего битрейта                    : Переменный
Общий поток                              : 33,1 Мбит/сек
Название фильма                          : Le retour du grand blond (1974) / Lelya_K for NNM-Club
Дата кодирования                         : UTC 2014-07-10 04:34:20
Программа кодирования                    : mkvmerge v5.7.0 ('The Whirlwind') built on Aug  7 2012 14:11:40
Библиотека кодирования                   : libebml v1.2.3 + libmatroska v1.3.0
Attachment                               : Yes
Видео
Идентификатор                            : 1
Формат                                   : AVC
Формат/Информация                        : Advanced Video Codec
Профиль формата                          : [url=mailto:High@L4.1]High@L4.1[/url]
Параметр CABAC формата                   : Да
Параметр ReFrames формата                : 4 кадра
Параметр GOP формата                     : M=3, N=24
Идентификатор кодека                     : V_MPEG4/ISO/AVC
Продолжительность                        : 1 ч. 21 м.
Вид битрейта                             : Переменный
Битрейт                                  : 31,0 Мбит/сек
Максимальный битрейт                     : 35,0 Мбит/сек
Ширина                                   : 1920 пикселей
Высота                                   : 1080 пикселей
Соотношение сторон                       : 16:9
Режим частоты кадров                     : Постоянный
Частота кадров                           : 24,000 кадра/сек
Стандарт вещания                         : NTSC
Цветовое пространство                    : YUV
Субдискретизация насыщенности            : 4:2:0
Битовая глубина                          : 8 бит
Тип развёртки                            : Прогрессивная
Бит/(Пиксели*Кадры)                      : 0.624
Размер потока                            : 17,6 Гбайт (94%)
Заголовок                                : Возвращение.высокого.блондина-Le.retour.du.grand.blond.(1974).BDRemux.[1080p]
Язык                                     : French
Default                                  : Да
Forced                                   : Нет
Основные цвета                           : BT.709
Характеристики трансфера                 : BT.709
Коэффициенты матрицы                     : BT.709
Аудио #1
Идентификатор                            : 2
Формат                                   : AC-3
Формат/Информация                        : Audio Coding 3
Расширение режима                        : CM (complete main)
Параметр Endianness формата              : Big
Идентификатор кодека                     : A_AC3
Продолжительность                        : 1 ч. 21 м.
Вид битрейта                             : Постоянный
Битрейт                                  : 192 Кбит/сек
Каналы                                   : 2 канала
Расположение каналов                     : Front: L R
Частота                                  : 48,0 КГц
Битовая глубина                          : 16 бит
Метод сжатия                             : С потерями
Размер потока                            : 111 Мбайт (1%)
Заголовок                                : AC3 2.0 / 192 kbps / Dub (советский дубляж со вставками двухголосого перевода)
Язык                                     : Russian
Default                                  : Да
Forced                                   : Нет
Аудио #2
Идентификатор                            : 3
Формат                                   : AC-3
Формат/Информация                        : Audio Coding 3
Расширение режима                        : CM (complete main)
Параметр Endianness формата              : Big
Идентификатор кодека                     : A_AC3
Продолжительность                        : 1 ч. 21 м.
Вид битрейта                             : Постоянный
Битрейт                                  : 192 Кбит/сек
Каналы                                   : 2 канала
Расположение каналов                     : Front: L R
Частота                                  : 48,0 КГц
Битовая глубина                          : 16 бит
Метод сжатия                             : С потерями
Размер потока                            : 111 Мбайт (1%)
Заголовок                                : AC3 2.0 / 192 kbps / DVO (Союз Видео)
Язык                                     : Russian
Default                                  : Нет
Forced                                   : Нет
Аудио #3
Идентификатор                            : 4
Формат                                   : AC-3
Формат/Информация                        : Audio Coding 3
Расширение режима                        : CM (complete main)
Параметр Endianness формата              : Big
Идентификатор кодека                     : A_AC3
Продолжительность                        : 1 ч. 21 м.
Вид битрейта                             : Постоянный
Битрейт                                  : 192 Кбит/сек
Каналы                                   : 2 канала
Расположение каналов                     : Front: L R
Частота                                  : 48,0 КГц
Битовая глубина                          : 16 бит
Метод сжатия                             : С потерями
Размер потока                            : 111 Мбайт (1%)
Заголовок                                : AC3 2.0 / 192 kbps / DVO (2+2)
Язык                                     : Ukrainian
Default                                  : Нет
Forced                                   : Нет
Аудио #4
Идентификатор                            : 5
Формат                                   : DTS
Формат/Информация                        : Digital Theater Systems
Профиль формата                          : MA / Core
Идентификатор кодека                     : A_DTS
Продолжительность                        : 1 ч. 21 м.
Вид битрейта                             : Переменный
Битрейт                                  : 803 Кбит/сек / 755 Кбит/сек
Каналы                                   : 2 канала
Расположение каналов                     : Front: L R
Частота                                  : 48,0 КГц
Битовая глубина                          : 16 бит
Метод сжатия                             : Без потерь / Lossy
Заголовок                                : DTS-HD MA 2.0 / 840 kbps / Original
Язык                                     : French
Default                                  : Нет
Forced                                   : Нет
Текст #1
Идентификатор                            : 6
Формат                                   : UTF-8
Идентификатор кодека                     : S_TEXT/UTF8
Идентификатор кодека/Информация          : UTF-8 Plain Text
Заголовок                                : Full
Язык                                     : English
Default                                  : Нет
Forced                                   : Нет
Текст #2
Идентификатор                            : 7
Формат                                   : UTF-8
Идентификатор кодека                     : S_TEXT/UTF8
Идентификатор кодека/Информация          : UTF-8 Plain Text
Заголовок                                : Full
Язык                                     : French
Default                                  : Нет
Forced                                   : Нет
Меню
00:00:00.000                             : fr:Chapter 1
00:06:21.375                             : fr:Chapter 2
00:14:21.041                             : fr:Chapter 3
00:20:19.250                             : fr:Chapter 4
00:27:48.750                             : fr:Chapter 5
00:34:48.291                             : fr:Chapter 6
00:41:55.707                             : fr:Chapter 7
00:48:22.791                             : fr:Chapter 8
00:55:30.666                             : fr:Chapter 9
01:03:56.875                             : fr:Chapter 10
01:09:21.500                             : fr:Chapter 11
01:15:07.416                             : fr:Chapter 12
Скриншоты:

[Профиль] [ЛС]
Кто просматривает тему:

Форум Тема Автор Размер
Other genres (Disco) VA - Star Hit - The best of 80s Vol.1-2 (80-e возвращаются и Суперхиты 80-х) - 2011, MP3, 320 kbps 2v2w 414 MB
Action FPS (1st Person) Metro 2033 - Redux / Метро 2033. Возвращение [L|GOG] [RUS|Multi10/RUS|Multi7] (2014) (v.1.0.0.3u5) TorrentFilm 6.82 GB
National Geographic NG: Исследователь 2.0: Бирма (Точка невозврата) [сезон 8 эпизод 09] / Explorer. Point of No Return (Todd Hermann) [2016 г., Документальный, научно-попупулярный, HDTVRip 720p] skorpionN 1.44 GB
S.T.A.L.K.E.R. S.T.A.L.K.E.R.: Shadow of Chernobyl - Путь Человека "Возвращение" (2015) PC | RePack by SeregA-Lus Garik014 5.08 GB
Фантастика, фэнтези Артем Каменистый - Возвращение к вершинам (2016) FB2 достали все 2 MB
Фильмы 2015 года Белые росы. Возвращение (2014) TVRip достали все 815 MB
Документальные HD Большое путешествие вглубь океанов: Возвращение / Tortuga - The Incredible Trip of the Sea Turtle (2009) BDRip от -=HD-NET=- sergej644 1.08 GB
Сатира и юмор Борис Леонтьев - Триумф великого комбинатора, или Возвращение Остапа Бендера [Григорий Шевчук, 2006] Magnat 558 MB
Показать сообщения:    

Текущее время: Сегодня 23:30

Часовой пояс: GMT



Вы не можете начинать темы
Вы не можете отвечать на сообщения
Вы не можете редактировать свои сообщения
Вы не можете удалять свои сообщения
Вы не можете голосовать в опросах
Вы не можете прикреплять файлы к сообщениям
Вы не можете скачивать файлы