Возвращение болотной твари / The Return of Swamp Thing (1989) BDRemux 1080р | L1

 
Автор Сообщение

BOSS ®

Пол:

Стаж: 2 года 11 месяцев

Сообщений: 7114

Откуда: ODESSA



Награды: 20 (Подробнее)

Top Seeder 2 (Количество: 1) Top Seeder 3 (Количество: 1) Mega Releaser 1 (Количество: 1)
Торрент-статистика

Создавать темы 13-Сен-2017 17:31

[Цитировать]

Информация о фильме
Название: Возвращение болотной твари
Оригинальное название: The Return of Swamp Thing
Год выхода: 1989
Жанр: ужасы, фантастика, боевик, комедия, приключения
Режиссер: Джим Уайнорски
В ролях: Луи Журдан, Хэзер Локлир, Сара Дуглас, Дик Дурок, Джо Сагал, Эйс Маск, Моник Габриэль, РонРико Ли, Дэниэл Эмери Тейлор, Ральф Пейс
Описание: Прекрасная Абигэйл приезжает в лабораторию своего отчима доктора Аркейна, чтобы узнать тайну смерти ее матери. К сожалению, Аркейн склонен лишить ее жизни для создания своей формулы бессмертия. На помощь Абигэйл приходит бывший доктор Холланд (а ныне болотное чудовище) и уносит ее в болото, где они вскоре безумно влюбляются друг в друга. Но их роман ставится под вопрос, когда Аркейн начинает охоту на эту странную парочку с целым арсеналом оружия…

Страна: США
Продолжительность: 01:27:02
Перевод 1: Любительский (одноголосый закадровый)
Перевод 2: Любительский (одноголосый закадровый) Женский
Перевод 3: Любительский (одноголосый закадровый) Ужастик
Субтитры: английские, английские SDH
Оригинальная аудиодорожка: английский
Файл
Качество: BDRemux 1080р
Видео: 1920x1080 / MPEG-4 AVC Video / 19913 kbps / 1080p / 24 fps / 16:9 / High Profile 4.1
Аудио 1: Русский, AC3 2.0 192 Kbps 48,0 КГц (VO1)
Аудио 2: Русский, AC3 2.0 192 Kbps 48,0 КГц (VO2)
Аудио 3: Русский, AC3 1.0 192 Kbps 48,0 КГц (VO3)
Аудио 4: English, FLAC 2.0 ~1454 Kbps 48,0 КГц (Original)
Аудио 5: English, AC3 5.1 448 Kbps 48,0 КГц (Original)

Скриншоты

MediaInfo

Общее
Уникальный идентификатор : 252371723278629776553105274604476024159 (0xBDDD06A13E882C23A1A3A2629CADC55F)
Полное имя : The.Return.of.Swamp.Thing.1989.BDRemux.1080p.3xRus.Eng.mkv
Формат : Matroska
Версия формата : Version 4 / Version 2
Размер файла : 13,6 Гбайт
Продолжительность : 1 ч. 27 м.
Режим общего битрейта : Переменный
Общий поток : 22,4 Мбит/сек
Название фильма : The Return of Swamp Thing
Дата кодирования : UTC 2017-09-13 09:24:50
Программа кодирования : mkvmerge v9.8.0 ('Kuglblids') 32bit
Библиотека кодирования : libebml v1.3.4 + libmatroska v1.4.5
Видео
Идентификатор : 1
Формат : AVC
Формат/Информация : Advanced Video Codec
Профиль формата : High@L4.1
Параметр CABAC формата : Да
Параметр ReFrames формата : 4 кадра
Параметр GOP формата : M=3, N=24
Идентификатор кодека : V_MPEG4/ISO/AVC
Продолжительность : 1 ч. 27 м.
Вид битрейта : Переменный
Битрейт : 19,9 Мбит/сек
Максимальный битрейт : 35,0 Мбит/сек
Ширина : 1920 пикселей
Высота : 1080 пикселей
Соотношение сторон : 16:9
Режим частоты кадров : Постоянный
Частота кадров : 24,000 кадра/сек
Стандарт вещания : NTSC
Цветовое пространство : YUV
Субдискретизация насыщенности : 4:2:0
Битовая глубина : 8 бит
Тип развёртки : Прогрессивная
Бит/(Пиксели*Кадры) : 0.400
Размер потока : 12,1 Гбайт (89%)
Заголовок : The.Return.of.Swamp.Thing.1989.BLURAY.COMPLETE-CiNEMATiC
Default : Нет
Forced : Нет
Цветовой диапазон : Limited
Основные цвета : BT.709
Характеристики трансфера : BT.709
Коэффициенты матрицы : BT.709
Аудио #1
Идентификатор : 2
Формат : AC-3
Формат/Информация : Audio Coding 3
Расширение режима : CM (complete main)
Параметр Endianness формата : Big
Идентификатор кодека : A_AC3
Продолжительность : 1 ч. 27 м.
Вид битрейта : Постоянный
Битрейт : 192 Кбит/сек
Каналы : 2 канала
Расположение каналов : Front: L R
Частота : 48,0 КГц
Частота кадров : 31,250 кадров/сек (1536 spf)
Битовая глубина : 16 бит
Метод сжатия : С потерями
Размер потока : 120 Мбайт (1%)
Заголовок : VO1 AC3 2.0 192 kbps
Язык : Russian
Default : Нет
Forced : Нет
Аудио #2
Идентификатор : 3
Формат : AC-3
Формат/Информация : Audio Coding 3
Расширение режима : CM (complete main)
Параметр Endianness формата : Big
Идентификатор кодека : A_AC3
Продолжительность : 1 ч. 27 м.
Вид битрейта : Постоянный
Битрейт : 192 Кбит/сек
Каналы : 2 канала
Расположение каналов : Front: L R
Частота : 48,0 КГц
Частота кадров : 31,250 кадров/сек (1536 spf)
Битовая глубина : 16 бит
Метод сжатия : С потерями
Размер потока : 120 Мбайт (1%)
Заголовок : VO2 AC3 2.0 192 kbps
Язык : Russian
Default : Нет
Forced : Нет
Аудио #3
Идентификатор : 4
Формат : AC-3
Формат/Информация : Audio Coding 3
Расширение режима : CM (complete main)
Параметр Endianness формата : Big
Идентификатор кодека : A_AC3
Продолжительность : 1 ч. 27 м.
Вид битрейта : Постоянный
Битрейт : 192 Кбит/сек
Каналы : 1 канал
Расположение каналов : Front: C
Частота : 48,0 КГц
Частота кадров : 31,250 кадров/сек (1536 spf)
Битовая глубина : 16 бит
Метод сжатия : С потерями
Размер потока : 120 Мбайт (1%)
Заголовок : VO3 AC3 1.0 192 kbps
Язык : Russian
Default : Нет
Forced : Нет
Аудио #4
Идентификатор : 5
Формат : FLAC
Формат/Информация : Free Lossless Audio Codec
Идентификатор кодека : A_FLAC
Продолжительность : 1 ч. 27 м.
Вид битрейта : Переменный
Битрейт : 1454 Кбит/сек
Каналы : 2 канала
Расположение каналов : Front: L R
Частота : 48,0 КГц
Частота кадров : 11,719 кадров/сек (4096 spf)
Битовая глубина : 24 бит
Размер потока : 905 Мбайт (6%)
Заголовок : Original FLAC 2.0 ~1454 kbps
Библиотека кодирования : libFLAC 1.2.1 (UTC 2007-09-17)
Язык : English
Default : Нет
Forced : Нет
Аудио #5
Идентификатор : 6
Формат : AC-3
Формат/Информация : Audio Coding 3
Расширение режима : CM (complete main)
Параметр Endianness формата : Big
Идентификатор кодека : A_AC3
Продолжительность : 1 ч. 27 м.
Вид битрейта : Постоянный
Битрейт : 448 Кбит/сек
Каналы : 6 каналов
Расположение каналов : Front: L C R, Side: L R, LFE
Частота : 48,0 КГц
Частота кадров : 31,250 кадров/сек (1536 spf)
Битовая глубина : 16 бит
Метод сжатия : С потерями
Размер потока : 279 Мбайт (2%)
Заголовок : Original AC3 5.1 448 kbps
Язык : English
Default : Нет
Forced : Нет
Текст #1
Идентификатор : 7
Формат : UTF-8
Идентификатор кодека : S_TEXT/UTF8
Идентификатор кодека/Информация : UTF-8 Plain Text
Продолжительность : 1 ч. 26 м.
Битрейт : 53 бит/сек
Count of elements : 1048
Размер потока : 34,0 Кбайт (0%)
Язык : English
Default : Нет
Forced : Нет
Текст #2
Идентификатор : 8
Формат : UTF-8
Идентификатор кодека : S_TEXT/UTF8
Идентификатор кодека/Информация : UTF-8 Plain Text
Продолжительность : 1 ч. 26 м.
Битрейт : 58 бит/сек
Count of elements : 1182
Размер потока : 37,1 Кбайт (0%)
Заголовок : SDH
Язык : English
Default : Нет
Forced : Нет
Меню
00:00:00.000 : en:00:00:00.000
00:10:57.375 : en:00:10:57.375
00:23:19.667 : en:00:23:19.667
00:31:19.125 : en:00:31:19.125
00:43:31.833 : en:00:43:31.833
00:52:05.125 : en:00:52:05.125
01:03:48.625 : en:01:03:48.625
01:18:33.542 : en:01:18:33.542
[Профиль] [ЛС]
Показать сообщения:    

Текущее время: Сегодня 01:43

Часовой пояс: GMT



Вы не можете начинать темы
Вы не можете отвечать на сообщения
Вы не можете редактировать свои сообщения
Вы не можете удалять свои сообщения
Вы не можете голосовать в опросах
Вы не можете прикреплять файлы к сообщениям
Вы не можете скачивать файлы