Возврат / Сдача / Вернуть наличкой / Cashback (Шон Эллис / Sean Ellis) [2006, Великобритания, драма, мелодрама, комедия, BDRip-AVC] DVO (Инис) + AVO (Антон Алексеев) + DVO (Интерфильм) + Original (Eng) + Subs (Rus, Eng)

 
Автор Сообщение

painkiller ®

Стаж: 2 года 3 месяца

Сообщений: 582



Награды: Нет

Торрент-статистика

Создавать темы 14-Авг-2014 09:11

[Цитировать]

Возврат / Сдача / Вернуть наличкой / Cashback«Life's what you make it»- Страна: Великобритания
Жанр: драма, мелодрама, комедия
Год выпуска: 2006
Продолжительность: 01:42:03-Перевод №1: Профессиональный (двухголосый закадровый) - Инис
Перевод №2: Авторский (одноголосый закадровый) - Антон Алексеев
Перевод №3: Любительский (двухголосый закадровый) - Интерфильм - отдельно в раздаче
Оригинальная аудиодорога: English
Cубтитры: Russian (full), English (full+full SDH)
Навигация по главам: Присутствует - 24 главы-Режиссер: Шон Эллис / Sean Ellis
В ролях: Шон Биггерстаф, Эмилия Фокс, Стюарт Гудвин, Майкл Лэмбурн, Майкл Диксон, Мишель Райан, Эрика Эллис, Джей Бауэн, Шон Эванс, Кеннет Фахи-Описание
Переживая болезненное расставание с любимой, Бен впадает в бессонницу. В освободившиеся 8 часов он начинает работать в ночную смену местного супермаркета, где главной задачей обслуживающего персонала является «времяубийство». Неожиданно Бен обнаруживает в себе необычную способность останавливать время, что даёт толчок его художественному таланту.
-
Download sample-Качество видео: BDRip-AVC | исх. BDRemux 1080p
Формат видео: MKV-Видео: 1 120x476 (2.35:1), 24.000 fps, x264 ~4197 kbps avg, 0.320 bit/pixel
Аудио №1: 48.0 kHz, AC3 Dolby Digital, 3/2 (L,C,R,l,r) + LFE ch, ~448 kbps | Профессиональный (двухголосый закадровый) - Инис
Аудио №2: 48.0 kHz, AC3 Dolby Digital, 3/2 (L,C,R,l,r) + LFE ch, ~448 kbps | Авторский (одноголосый закадровый) - Антон Алексеев
Аудио №3: 48.0 kHz, AC3 Dolby Digital, 2/0 (L,R) ch, ~192 kbps | Любительский (двухголосый закадровый) - Интерфильм - отдельно в раздаче
Аудио №4: 48.0 kHz, AC3 Dolby Digital, 3/2 (L,C,R,l,r) + LFE ch, ~448 kbps | English-

MediaInfo

General
Unique ID : 201594226128552948716198626532352083749 (0x97A9A2BB60AA01438A8151639C004725)
Complete name : D:\Фильмы\Рипы\Cashback.2006.BDRip-AVC.eFK\Cashback.2006.BDRip-AVC.eFK.mkv
Format : Matroska
Format version : Version 4 / Version 2
File size : 3.95 GiB
Duration : 1h 42mn
Overall bit rate : 5 541 Kbps
Movie name : Cashback (2006) - Release for rutracker
Encoded date : UTC 2014-06-14 19:50:18
Writing application : mkvmerge v6.1.0 ('Old Devil') built on Mar 4 2013 09:10:42
Writing library : libebml v1.3.0 + libmatroska v1.4.0
Attachment : Yes
Video
ID : 1
Format : AVC
Format/Info : Advanced Video Codec
Format profile : High@L4.1
Format settings, CABAC : Yes
Format settings, ReFrames : 15 frames
Codec ID : V_MPEG4/ISO/AVC
Duration : 1h 42mn
Bit rate : 4 087 Kbps
Width : 1 120 pixels
Height : 476 pixels
Display aspect ratio : 2.35:1
Frame rate mode : Constant
Frame rate : 23.976 fps
Color space : YUV
Chroma subsampling : 4:2:0
Bit depth : 8 bits
Scan type : Progressive
Bits/(Pixel*Frame) : 0.320
Stream size : 2.91 GiB (74%)
Title : eFK
Writing library : x264 core 142 r2431kMod ac76440
Encoding settings : cabac=1 / ref=15 / deblock=1:-3:-3 / analyse=0x3:0x133 / me=umh / subme=11 / psy=1 / fade_compensate=0.00 / psy_rd=1.05:0.00 / mixed_ref=1 / me_range=64 / chroma_me=1 / trellis=2 / 8x8dct=1 / cqm=0 / deadzone=21,11 / fast_pskip=1 / chroma_qp_offset=-2 / threads=8 / lookahead_threads=2 / sliced_threads=0 / nr=0 / decimate=1 / interlaced=0 / bluray_compat=0 / constrained_intra=0 / fgo=0 / bframes=16 / b_pyramid=2 / b_adapt=2 / b_bias=0 / direct=3 / weightb=1 / open_gop=0 / weightp=2 / keyint=250 / keyint_min=23 / scenecut=40 / intra_refresh=0 / rc_lookahead=60 / rc=crf / mbtree=0 / crf=16.7000 / qcomp=0.60 / qpmin=0 / qpmax=69 / qpstep=4 / vbv_maxrate=50000 / vbv_bufsize=62500 / crf_max=0.0 / nal_hrd=none / filler=0 / ip_ratio=1.40 / pb_ratio=1.30 / aq=3:0.67
Default : Yes
Forced : No
Audio #1
ID : 2
Format : AC-3
Format/Info : Audio Coding 3
Mode extension : CM (complete main)
Format settings, Endianness : Big
Codec ID : A_AC3
Duration : 1h 42mn
Bit rate mode : Constant
Bit rate : 448 Kbps
Channel count : 6 channels
Channel positions : Front: L C R, Side: L R, LFE
Sampling rate : 48.0 KHz
Bit depth : 16 bits
Compression mode : Lossy
Stream size : 327 MiB (8%)
Title : DVO - (Studio Inis)
Language : Russian
Default : Yes
Forced : No
Audio #2
ID : 3
Format : AC-3
Format/Info : Audio Coding 3
Mode extension : CM (complete main)
Format settings, Endianness : Big
Codec ID : A_AC3
Duration : 1h 42mn
Bit rate mode : Constant
Bit rate : 448 Kbps
Channel count : 6 channels
Channel positions : Front: L C R, Side: L R, LFE
Sampling rate : 48.0 KHz
Bit depth : 16 bits
Compression mode : Lossy
Stream size : 327 MiB (8%)
Title : AVO - (Anton Alexeev)
Language : Russian
Default : No
Forced : No
Audio #3
ID : 4
Format : AC-3
Format/Info : Audio Coding 3
Mode extension : CM (complete main)
Format settings, Endianness : Big
Codec ID : A_AC3
Duration : 1h 42mn
Bit rate mode : Constant
Bit rate : 448 Kbps
Channel count : 6 channels
Channel positions : Front: L C R, Side: L R, LFE
Sampling rate : 48.0 KHz
Bit depth : 16 bits
Compression mode : Lossy
Stream size : 327 MiB (8%)
Language : English
Default : No
Forced : No
Text #1
ID : 5
Format : UTF-8
Codec ID : S_TEXT/UTF8
Codec ID/Info : UTF-8 Plain Text
Title : full
Language : Russian
Default : No
Forced : No
Text #2
ID : 6
Format : UTF-8
Codec ID : S_TEXT/UTF8
Codec ID/Info : UTF-8 Plain Text
Title : full
Language : English
Default : No
Forced : No
Text #3
ID : 7
Format : UTF-8
Codec ID : S_TEXT/UTF8
Codec ID/Info : UTF-8 Plain Text
Title : full SDH
Language : English
Default : No
Forced : No
Menu
00:00:00.000 : en:00:00:00.000
00:01:20.747 : en:00:01:20.747
00:04:24.639 : en:00:04:24.639
00:10:39.973 : en:00:10:39.973
00:13:39.152 : en:00:13:39.152
00:16:52.678 : en:00:16:52.678
00:21:46.305 : en:00:21:46.305
00:25:01.500 : en:00:25:01.500
00:29:24.763 : en:00:29:24.763
00:32:43.503 : en:00:32:43.503
00:34:31.236 : en:00:34:31.236
00:40:06.362 : en:00:40:06.362
00:44:31.419 : en:00:44:31.419
00:47:32.308 : en:00:47:32.308
00:55:26.823 : en:00:55:26.823
00:58:53.780 : en:00:58:53.780
01:03:36.229 : en:01:03:36.229
01:11:02.467 : en:01:11:02.467
01:13:21.355 : en:01:13:21.355
01:17:19.802 : en:01:17:19.802
01:21:34.973 : en:01:21:34.973
01:28:49.908 : en:01:28:49.908
01:30:38.683 : en:01:30:38.683
01:35:57.752 : en:01:35:57.752

x264 log

x264 [info]: frame I:1065 Avg QP:15.70 size: 92928 PSNR Mean Y:47.36 U:49.13 V:49.75 Avg:47.92 Global:46.89
x264 [info]: frame P:28955 Avg QP:17.41 size: 41983 PSNR Mean Y:45.53 U:47.78 V:48.55 Avg:46.18 Global:45.17
x264 [info]: frame B:116796 Avg QP:19.15 size: 16248 PSNR Mean Y:45.15 U:47.68 V:48.85 Avg:45.88 Global:44.26
x264 [info]: consecutive B-frames: 1.2% 1.5% 4.1% 19.9% 18.6% 40.6% 5.5% 3.5% 1.4% 0.5% 0.5% 0.5% 0.4% 0.2% 0.1% 0.1% 1.3%
x264 [info]: mb I I16..4: 4.9% 79.3% 15.8%
x264 [info]: mb P I16..4: 0.2% 14.1% 0.9% P16..4: 24.9% 32.3% 18.5% 2.6% 0.2% skip: 6.3%
x264 [info]: mb B I16..4: 0.0% 1.9% 0.1% B16..8: 32.6% 21.0% 5.7% direct: 8.1% skip:30.6% L0:43.0% L1:41.6% BI:15.4%
x264 [info]: 8x8 transform intra:91.3% inter:56.9%
x264 [info]: direct mvs spatial:99.9% temporal:0.1%
x264 [info]: coded y,uvDC,uvAC intra: 97.3% 96.0% 91.4% inter: 36.1% 35.1% 18.8%
x264 [info]: i16 v,h,dc,p: 42% 14% 16% 28%
x264 [info]: i8 v,h,dc,ddl,ddr,vr,hd,vl,hu: 9% 8% 12% 10% 13% 13% 12% 12% 12%
x264 [info]: i4 v,h,dc,ddl,ddr,vr,hd,vl,hu: 13% 8% 4% 8% 15% 15% 13% 11% 11%
x264 [info]: i8c dc,h,v,p: 55% 13% 13% 19%
x264 [info]: Weighted P-Frames: Y:6.4% UV:4.2%
x264 [info]: ref P L0: 38.2% 11.0% 18.7% 6.4% 6.1% 3.8% 3.9% 1.9% 2.1% 1.5% 1.7% 1.3% 1.3% 1.0% 1.1% 0.1%
x264 [info]: ref B L0: 68.4% 12.0% 5.6% 3.3% 2.3% 2.1% 1.6% 1.1% 0.9% 0.9% 0.7% 0.8% 0.4% 0.2%
x264 [info]: ref B L1: 93.2% 6.8%
x264 [info]: SSIM Mean Y:0.9789790 (16.773db)
x264 [info]: PSNR Mean Y:45.239 U:47.712 V:48.798 Avg:45.953 Global:44.438 kb/s:4196.70
x264 [total]: encoded 146816 frames,7.90 fps, 4196.70 kb/s
ComparisonSource

Encode
[Профиль] [ЛС]

Создавать темы 06-Авг-2015 23:15 (спустя 11 месяцев 23 дня)

Топик был перенесен из форума Фильмы до 2014 года в форум Фильмы до 2012 года
sergej644
 
Кто просматривает тему:

Форум Тема Автор Размер
Other genres (Disco) VA - Star Hit - The best of 80s Vol.1-2 (80-e возвращаются и Суперхиты 80-х) - 2011, MP3, 320 kbps 2v2w 414 MB
Action FPS (1st Person) Metro 2033 - Redux / Метро 2033. Возвращение [L|GOG] [RUS|Multi10/RUS|Multi7] (2014) (v.1.0.0.3u5) TorrentFilm 6.82 GB
National Geographic NG: Исследователь 2.0: Бирма (Точка невозврата) [сезон 8 эпизод 09] / Explorer. Point of No Return (Todd Hermann) [2016 г., Документальный, научно-попупулярный, HDTVRip 720p] skorpionN 1.44 GB
S.T.A.L.K.E.R. S.T.A.L.K.E.R.: Shadow of Chernobyl - Путь Человека "Возвращение" (2015) PC | RePack by SeregA-Lus Garik014 5.08 GB
Фантастика, фэнтези Артем Каменистый - Возвращение к вершинам (2016) FB2 достали все 2 MB
Фильмы 2015 года Белые росы. Возвращение (2014) TVRip достали все 815 MB
Документальные HD Большое путешествие вглубь океанов: Возвращение / Tortuga - The Incredible Trip of the Sea Turtle (2009) BDRip от -=HD-NET=- sergej644 1.08 GB
Сатира и юмор Борис Леонтьев - Триумф великого комбинатора, или Возвращение Остапа Бендера [Григорий Шевчук, 2006] Magnat 558 MB
Показать сообщения:    

Текущее время: Сегодня 08:49

Часовой пояс: GMT



Вы не можете начинать темы
Вы не можете отвечать на сообщения
Вы не можете редактировать свои сообщения
Вы не можете удалять свои сообщения
Вы не можете голосовать в опросах
Вы не можете прикреплять файлы к сообщениям
Вы не можете скачивать файлы