Возврат / Сдача / Вернуть наличкой / Cashback (Шон Эллис / Sean Ellis) [2006, Великобритания, драма, мелодрама, комедия, BDRip] DVO (Инис)

 
Автор Сообщение

painkiller ®

Стаж: 2 года 3 месяца

Сообщений: 582



Награды: Нет

Торрент-статистика

Создавать темы 14-Авг-2014 09:11

[Цитировать]

Возврат / Сдача / Вернуть наличкой / Cashback«Life's what you make it»- Страна: Великобритания
Жанр: драма, мелодрама, комедия
Год выпуска: 2006
Продолжительность: 01:42:03-Перевод: Профессиональный (двухголосый закадровый) - Инис
Cубтитры: отсутствуют-Режиссер: Шон Эллис / Sean Ellis
В ролях: Шон Биггерстаф, Эмилия Фокс, Стюарт Гудвин, Майкл Лэмбурн, Майкл Диксон, Мишель Райан, Эрика Эллис, Джей Бауэн, Шон Эванс, Кеннет Фахи-Описание
Переживая болезненное расставание с любимой, Бен впадает в бессонницу. В освободившиеся 8 часов он начинает работать в ночную смену местного супермаркета, где главной задачей обслуживающего персонала является «времяубийство». Неожиданно Бен обнаруживает в себе необычную способность останавливать время, что даёт толчок его художественному таланту.
-
Download sample-Качество видео: BDRip | исх. BDRemux 1080p
Формат видео: AVI-Видео: 640x272 (2.35:1), 23.976 fps, XviD build 73 ~888 kbps avg, 0.21 bit/pixel
Аудио: 48 kHz, MPEG Layer 3, 2 ch, ~128.00 kbps avg | Профессиональный (двухголосый закадровый) - Инис-

MediaInfo

General
Complete name : D:\Фильмы\Рипы\Cashback.2006.BDRip.eFK.avi
Format : AVI
Format/Info : Audio Video Interleave
File size : 748 MiB
Duration : 1h 42mn
Overall bit rate : 1 025 Kbps
Writing application : VirtualDubMod 1.5.10.3 | www.virtualdub-fr.org || (build 2550/release)
Writing library : VirtualDubMod build 2550/release
Video
ID : 0
Format : MPEG-4 Visual
Format profile : Advanced Simple@L5
Format settings, BVOP : 1
Format settings, QPel : No
Format settings, GMC : No warppoints
Format settings, Matrix : Custom
Codec ID : XVID
Codec ID/Hint : XviD
Duration : 1h 42mn
Bit rate : 888 Kbps
Width : 640 pixels
Height : 272 pixels
Display aspect ratio : 2.35:1
Frame rate : 23.976 fps
Color space : YUV
Chroma subsampling : 4:2:0
Bit depth : 8 bits
Scan type : Progressive
Compression mode : Lossy
Bits/(Pixel*Frame) : 0.213
Stream size : 649 MiB (87%)
Writing library : XviD 73
Audio
ID : 1
Format : MPEG Audio
Format version : Version 1
Format profile : Layer 3
Codec ID : 55
Codec ID/Hint : MP3
Duration : 1h 41mn
Bit rate mode : Constant
Bit rate : 128 Kbps
Channel count : 2 channels
Sampling rate : 48.0 KHz
Compression mode : Lossy
Stream size : 93.0 MiB (12%)
Alignment : Aligned on interleaves
Interleave, duration : 42 ms (1.00 video frame)
Interleave, preload duration : 504 ms
Writing library : LAME3.99r
Encoding settings : -m s -V 4 -q 0 -lowpass 17 -b 128
[Профиль] [ЛС]

Создавать темы 06-Авг-2015 23:15 (спустя 11 месяцев 23 дня)

Топик был перенесен из форума Фильмы до 2014 года в форум Фильмы до 2012 года
sergej644
 
Кто просматривает тему:

Форум Тема Автор Размер
Other genres (Disco) VA - Star Hit - The best of 80s Vol.1-2 (80-e возвращаются и Суперхиты 80-х) - 2011, MP3, 320 kbps 2v2w 414 MB
Action FPS (1st Person) Metro 2033 - Redux / Метро 2033. Возвращение [L|GOG] [RUS|Multi10/RUS|Multi7] (2014) (v.1.0.0.3u5) TorrentFilm 6.82 GB
National Geographic NG: Исследователь 2.0: Бирма (Точка невозврата) [сезон 8 эпизод 09] / Explorer. Point of No Return (Todd Hermann) [2016 г., Документальный, научно-попупулярный, HDTVRip 720p] skorpionN 1.44 GB
S.T.A.L.K.E.R. S.T.A.L.K.E.R.: Shadow of Chernobyl - Путь Человека "Возвращение" (2015) PC | RePack by SeregA-Lus Garik014 5.08 GB
Фантастика, фэнтези Артем Каменистый - Возвращение к вершинам (2016) FB2 достали все 2 MB
Фильмы 2015 года Белые росы. Возвращение (2014) TVRip достали все 815 MB
Документальные HD Большое путешествие вглубь океанов: Возвращение / Tortuga - The Incredible Trip of the Sea Turtle (2009) BDRip от -=HD-NET=- sergej644 1.08 GB
Сатира и юмор Борис Леонтьев - Триумф великого комбинатора, или Возвращение Остапа Бендера [Григорий Шевчук, 2006] Magnat 558 MB
Показать сообщения:    

Текущее время: Сегодня 12:31

Часовой пояс: GMT



Вы не можете начинать темы
Вы не можете отвечать на сообщения
Вы не можете редактировать свои сообщения
Вы не можете удалять свои сообщения
Вы не можете голосовать в опросах
Вы не можете прикреплять файлы к сообщениям
Вы не можете скачивать файлы