Вождь разнокожих (Егор Анашкин) [2012, Россия, Криминальная комедия, DVD5]

 
Автор Сообщение

TorrentFilm ®

Пол:

Стаж: 1 год 11 месяцев

Сообщений: 7741



Награды: Нет

Торрент-статистика

Создавать темы 28-Мар-2016 00:08

[Цитировать]

Вождь разнокожих
Страна: Россия
Жанр: Криминальная комедия
Год выпуска: 2012
Продолжительность: 01:29:37
Cубтитры: отсутствуют
Режиссёр: Егор Анашкин
Актёры: Никита Иванов, Дмитрий Дюжев, Григорий Сиятвинда, Мария Миронова, Семён Стругачёв, Виталий Гребенников, Маргарита Бычкова, Олег Дурыгин, Роман Хардиков, Павел Мисаилов, Александр Шаврин, Валентина Березуцкая, Владимир Епископосян, Эдуард Арушанян, Александр Числов, и др.
Аннотация: Создатели фильма достаточно вольно трактуют новеллу О`Генри "Вождь краснокожих". История малолетнего хулигана была перенесена в форме кинематографической карикатуры в современные реалии российской действительности. Этот фильм не только о разрушительной силе детских шалостей, но также и о природе их происхождения. Этот фильм не простая развлекательная цветная картинка на белой тряпке экрана - в нём создатели затрагивают непреодолимые трудности отношений современных детей и взрослых. Это история большого современного огромного города, где почти каждый глубоко одинок, глубоко одинок в толпе, в толпе таких же одиноких как и он сам. Это история вечно занятых родителей, у которых дети предоставлены сами себе, и лишены полноценного общения как с родителями, так и с ровесниками, лишены почти полностью...
Меню: анимированное озвученное
Издатель диска: Си Ди Лэнд рекордс

Тип релиза: DVD5
Контейнер: DVD-Video
Видео: MPEG-2, VBR 3752 - 7500 Kbps, 720 x 576 pixels 16:9, 25.000 fps PAL, 0.362 bit/pixel
Аудио: AC-3 Dolby Digital, CBR 448 kbps 6 ch (Front: L C R, Side: L R, LFE) 48.0 KHz

DVDInfo

Title: Вождь_разнокожих_2012_DVD5_[torrentfilm.net]Size: 2.86 Gb ( 3 000 546,00 KBytes ) - DVD-5Enabled regions: 1, 2, 3, 4, 5, 6, 7, 8
VTS_01 : Play Length: 00:00:19 Video: PAL 4:3 (720x576) VBR Audio: Not specified (Dolby AC3, 2 ch)
VTS_02 : Play Length: 00:00:15 Video: PAL 16:9 (720x576) VBR, Auto Letterboxed Audio: Not specified (Dolby AC3, 2 ch)
VTS_03 : Play Length: 01:29:37 Video: PAL 16:9 (720x576) VBR, Auto Letterboxed Audio: Russian (Dolby AC3, 6 ch)
* Menus Information *
VIDEO_TS MenuVideo: PAL 16:9 (720x576) VBR Auto Pan&Scan, Auto LetterboxedEnglish Language Unit : Title Menu
VTS_01 MenuVideo: PAL 16:9 (720x576) VBR Auto LetterboxedAudio: Not specified (Dolby AC3, 2 ch)English Language Unit : Root Menu
VTS_02 MenuVideo: PAL 4:3 (720x576) VBREnglish Language Unit : Root Menu
VTS_03 MenuVideo: PAL 4:3 (720x576) VBREnglish Language Unit : Root Menu

MediaInfo - VTS_03_1.VOB

ОбщееПолное имя : P:\Вождь_разнокожих_2012_DVD5_[torrentfilm.net]\VIDEO_TS\VTS_03_1.VOBФормат : MPEG-PSРазмер файла : 1024 МбайтПродолжительность : 33 м.Режим общего битрейта : ПеременныйОбщий поток : 4285 Кбит/сек
ВидеоИдентификатор : 224 (0xE0)Формат : MPEG VideoВерсия формата : Version 2Профиль формата : Main@MainПараметр BVOP формата : ДаПараметр матрицы формата : ВыборочнаяПараметр GOP формата : M=3, N=12Продолжительность : 33 м.Вид битрейта : ПеременныйБитрейт : 3752 Кбит/секМаксимальный битрейт : 7500 Кбит/секШирина : 720 пикселейВысота : 576 пикселейСоотношение сторон : 16:9Частота кадров : 25,000 кадров/секСтандарт вещания : PALЦветовое пространство : YUVСубдискретизация насыщенности : 4:2:0Битовая глубина : 8 битТип развёртки : ПрогрессивнаяМетод сжатия : С потерямиБит/(Пиксели*Кадры) : 0.362Временной код первого кадра : 00:00:00:00Оригинал временного кода : Group of pictures headerРазмер потока : 897 Мбайт (88%)Основные цвета : BT.601 PALХарактеристики трансфера : BT.470 System B, BT.470 System GКоэффициенты матрицы : BT.601
АудиоИдентификатор : 189 (0xBD)-128 (0x80)Формат : AC-3Формат/Информация : Audio Coding 3Расширение режима : CM (complete main)Параметр Endianness формата : BigРежим смешивания : DVD-VideoПродолжительность : 33 м.Вид битрейта : ПостоянныйБитрейт : 448 Кбит/секКаналы : 6 каналовРасположение каналов : Front: L C R, Side: L R, LFEЧастота : 48,0 КГцБитовая глубина : 16 битМетод сжатия : С потерямиРазмер потока : 107 Мбайт (10%)
Меню

Скриншоты меню

Скриншоты


Время раздачи - по возможности.
[Профиль] [ЛС]
Показать сообщения:    

Текущее время: Сегодня 20:02

Часовой пояс: GMT



Вы не можете начинать темы
Вы не можете отвечать на сообщения
Вы не можете редактировать свои сообщения
Вы не можете удалять свои сообщения
Вы не можете голосовать в опросах
Вы не можете прикреплять файлы к сообщениям
Вы не можете скачивать файлы