Военный парад, посвященный 70-й годовщине Победы в ВОВ 1941-1945г . Москва (2015.05.09) HDTV [H.264/1080i] (НТВ HD)

 
Автор Сообщение

достали все ®

Пол:

Стаж: 1 год 8 месяцев

Сообщений: 6600



Награды: 12 (Подробнее)

Mega Seeder 1 (Количество: 1) Mega Seeder 5 (Количество: 1) Mega Releaser 2 (Количество: 1)
Торрент-статистика

Создавать темы 09-Май-2015 11:15

[Цитировать]

- Военный парад, посвященный 70-й годовщине Победы в ВОВ 1941-1945г . Москва (2015.05.09) HDTV [H.264/1080i] (НТВ HD) - Телекомпания: НТВ HD
Жанр: Документальный, военный парад
Описание:
Каждый год 9 мая во многих странах мира отмечают День Победы над немецко-фашистскими захватчиками. Но нигде этот праздник не празднуют с таким размахом, как в России. В 2015 году на 70-летие Дня Победы в Москве планируется самый масштабный и запоминающийся военный парад. Безусловно, каждый хотел бы увидеть это мероприятие своими глазами, однако не у всех есть возможность. В Параде Победы 2015 примут участие также и военнослужащие других стран. Сюда входят представители вооруженных сил Армении, Сербии, Азербайджана, Китая, Киргизии, Индии, Казахстана, Республики Беларусь, Таджикистана. Также впервые за всю историю празднования Дня Победы будут участвовать военнослужащие Монголии. На Параде Победы в 2015 году будет задействовано 194 единицы бронетехники, 143 самолёта и вертолёта, более 15000 военнослужащих. Начнется парад с демонстрации военной техники, которая принесла нам победу 70 лет назад - по Красной площади пройдут легендарные танки Т-34 и самоходные артиллерийский установки СУ-100. После ретро-машин зрители смогут увидеть образцы новейшей российской техники - танк нового поколения «Армата», бронетранспортер «Бумеранг», ракетный комплекс «Бастион» и другие. Так, впервые за всю историю празднования Дня Победы пройдут самоходные артиллерийские установки нового поколения "Коалиция-СВ",комплекс "Корнет-Д", стратегические ракетные комплексы "Ярс" и другие виды боевой техники. Если вы не хотите пропустить это масштабное мероприятие, и у вас нет возможности побывать на Красной площади, то на нашем сайте будет онлайн трансляция всего, что происходит на Параде в Москве. В авиационной части парада в 2015 году будет задействован 21 тип авиатехники. Зрители на Красной площади и в онлайн трансляции смогут наблюдать поистине грандиозное зрелище - в небе над Москвой пролетят тяжелые стратегические бомбардировщики Ту-160, Ту-95МС и Ту-22М3, транспортные самолеты Ил-76, Ил-78 и Ан-124, истребители Су-27, Су-30, Су-35 и многие другие. В завершении воздушной части Парада Победы экипажи МиГ-29 выстроят в небе число «70» из 15 самолетов, а штурмовики Су-25 украсят небо над столицей России дымами цветов российского флага.
Продолжительность: ~ 01:23:02
Качество видео: HDTV
Видеокодек: AVC
Битрейт видео: ~9560 Кбит/сек
Размер кадра: 1920 x 1080
Аудио: MP2, 2ch., 192 kb/s

Mediainfo:

Формат                                   : MPEG-TS
Размер файла                             : 5,95 Гбайт
Продолжительность                        : 1 ч. 23 м.
Режим общего битрейта                    : Переменный
Общий поток                              : 10,3 Мбит/сек
Видео
Идентификатор                            : 201 (0xC9)
Идентификатор меню                       : 2201 (0x899)
Формат                                   : AVC
Формат/Информация                        : Advanced Video Codec
Профиль формата                          : Main@L4
Параметр CABAC формата                   : Да
Параметр ReFrames формата                : 4 кадра
Идентификатор кодека                     : 27
Продолжительность                        : 1 ч. 23 м.
Битрейт                                  : 9560 Кбит/сек
Ширина                                   : 1920 пикселей
Высота                                   : 1080 пикселей
Соотношение сторон                       : 16:9
Частота кадров                           : 25,000 кадров/сек
Стандарт вещания                         : Component
Цветовое пространство                    : YUV
Субдискретизация насыщенности            : 4:2:0
Битовая глубина                          : 8 бит
Тип развёртки                            : Чересстрочная
Порядок развёртки                        : Верхнее поле первое
Бит/(Пиксели*Кадры)                      : 0.184
Размер потока                            : 5,54 Гбайт (93%)
Цветовой диапазон                        : Limited
Основные цвета                           : BT.709
Характеристики трансфера                 : BT.709
Коэффициенты матрицы                     : BT.709
Аудио
Идентификатор                            : 301 (0x12D)
Идентификатор меню                       : 2201 (0x899)
Формат                                   : MPEG Audio
Версия формата                           : Version 1
Профиль формата                          : Layer 2
Идентификатор кодека                     : 3
Продолжительность                        : 1 ч. 23 м.
Вид битрейта                             : Постоянный
Битрейт                                  : 192 Кбит/сек
Каналы                                   : 2 канала
Частота                                  : 48,0 КГц
Метод сжатия                             : С потерями
Задержка видео                           : -120 мс.
Размер потока                            : 114 Мбайт (2%)
Язык                                     : English
Скриншоты:
[Профиль] [ЛС]

skorpionN

Пол:

Стаж: 1 год 8 месяцев

Сообщений: 591



Награды: 4 (Подробнее)

Mega Seeder 1 (Количество: 1) Mega Seeder 3 (Количество: 1) Top Releaser 2 (Количество: 1)
Торрент-статистика

Создавать темы 09-Май-2015 13:13 (спустя 1 час 58 минут)

[Цитировать]

И кому это надо?
[Профиль] [ЛС]
Кто просматривает тему:

Форум Тема Автор Размер
Author's Song (Авторская военная песня) VA - Сборник песен об афганской войне - Афган - 2009, FLAC (image + .cue), lossless Magnat 467 MB
Author's Song (Авторская песня) Владимир Высоцкий - Все военные песни (2CD) - 2005 [APE, image +.cue, lossless] sergej644 472 MB
Кино СССР ...А зори здесь тихие (Станислав Ростоцкий) [1972, драма, военный, история] DVDRip | Полная версия BOSS 2.83 GB
Фильмы до 2012 года 07-й меняет курс (Владимир Потапов) [2007, Боевик, военный, DVDRip-AVC] sergej644 1.41 GB
Фильмы 2009 года 1066 - Нормандское завоевание Англии / 1066 - The Battle for Middle Earth (Джастин Харди / Justin Hardy) [2009, Великобритания, боевик, военный, история, DVDRip] VO (SDI Media) + Original Eng TorrentFilm 2.19 GB
Фильмы (DVD 5/9) 12 / Двенадцать (Никита Михалков) [2007, Россия, Триллер, драма, криминал, детектив, военный, BD>DVD5 (Custom)] TorrentFilm 4.33 GB
Фильмы (DVD 5/9) 12 / Двенадцать (Никита Михалков) [2007, Россия, Триллер, драма, криминал, детектив, военный, BD>DVD9 (Custom)] TorrentFilm 7.8 GB
Фильмы 2015 года 1944 (Элмо Нюганен / Elmo Nüganen) [2015, Эстония, Финляндия, драма, военный, HDRip] VO TorrentFilm 741 MB
Показать сообщения:    

Текущее время: Сегодня 03:24

Часовой пояс: GMT



Вы не можете начинать темы
Вы не можете отвечать на сообщения
Вы не можете редактировать свои сообщения
Вы не можете удалять свои сообщения
Вы не можете голосовать в опросах
Вы не можете прикреплять файлы к сообщениям
Вы не можете скачивать файлы