Военные сборы / Головорезы на сборах / Repmånad eller Hur man gör pojkar av män (Лассе Оберг / Lasse Åberg) [1979, Швеция, Комедия, DVDRip] VO (Ростислав Ганичев) + Sub (Rus)

 
Автор Сообщение

Один 777 ®

Пол:

Стаж: 1 год 8 месяцев

Сообщений: 458

Откуда: Луцк



Награды: 7 (Подробнее)

Mega Seeder 1 (Количество: 1) Mega Releaser 1 (Количество: 1) Mega Seeder 3 (Количество: 1)
Торрент-статистика

Создавать темы 03-Сен-2016 11:34

[Цитировать]

Военные сборы / Головорезы на сборах / Repmånad eller Hur man gör pojkar av män
«На сборах или как из мужчин делают мальчиков»
Год выпуска: 1979
Страна: Швеция / Europa Film, Rifilm, Viking Film
Жанр: Комедия
Продолжительность: 01:20:36
Перевод: Любительский (одноголосый закадровый) Ростислав Ганичев
Cубтитры: русские на песни и надписи (hardsub (неотключаемые))
Режиссер: Лассе Оберг / Lasse Åberg
В ролях: Лассе Оберг, Янне Карлссон, Тед Острём, Вейрон Хольмберг, Леннарт Скоог, Лассе Хальденберг, Ингвар Андерссон, Лена-Мария Горденэс, Агнета Прютц, Моника Доминик, Лотти Эйебрант, Малоу Берг, Палле Грандитски, Молтас Эрикссон, Ларс Амбле, Томас Унгевиттер, Ян-Ивар Ютас...
Описание: Швеция конца 70-х годов. Весь цивилизованный мир мучается похмельем «вьетнамского» синдрома. Всюду свирепствуют лохматые пацифисты. И посреди этого разгула демократии скромному телефонному мастеру приносят повестку из военкомата. Долг родине он отдал еще 10 лет назад, но государство снова призывает резервиста Хельге Юнссона, который неожиданно соглашается, чтобы еще раз погрузиться в атмосферу свободы и военных приключений. Ведь доблестная шведская армия – единственный способ уйти от опеки излишне заботливой мамочки.
Авторам картины удалось точно и, в то же время, деликатно объяснить, почему респектабельные и солидные мужчины на всех континентах так охотно бросают на месяц привычную работу и родных, чтобы снова встретиться со старыми товарищами, ночевать в лесах, играть в войну, жрать водку и… заниматься всем остальным, что рифмуется со словом «жрать».

Сэмпл: http://sendfile.su/1262274

Качество видео: DVDRip
Формат видео: AVI
Видео кодек: XviD
Аудио кодек: МР3
Видео: 640x352 (1.82:1), 25 fps, XviD build 73 ~1162 kbps avg, 0.21 bit/pixel
Аудио: 48 kHz, MPEG Layer 3, 2 ch, ~128.00 kbps avg

Интересные факты

• Фильм попал в энциклопедию «Тысяча шведских классических произведений», вышедшую в 2009 г.
• Премьера фильма пришлась на 23 февраля.
• Фильм переполнен ссылками к теме вьетнамской войны. Швеция очень активно выступала против американской агрессии в Индокитае и был период, когда США в знак протеста даже отзывали своего посла из Стокгольма.
• В столовой Ёберг смотрит телевизор, по которому показывают «Чебурашку и крокодила Гену». Как не странно, мультфильм не советский. Дело в том, что в семидесятых годах шведские кинематографисты так вдохновились русским Чебурашкой и его друзьями, что создали свой вариант, пользовавшийся успехом у детей и взрослых. В 1973 году телеканал SVT начал показ кукольного мультфильма “Drutten och Gena”, состоявшего более чем из 600 (!) серий. На волне успеха выходила даже газета с комиксами и рассказами о Чебурашке и Гене под названием „Jena“ – как искаженная транслитерация русского Гены.
• Напившись, Густафссон и Юнссон называют себя карателями, в шведском оригинале они говорят фразу: «Помни Одален». Одален – округ в провинции Вестерноррланд. Здесь в 1930 году на нескольких заводах из-за снижения зарплат произошла забастовка и на усмирение рабочих власти послали войска. Подавление бунта привело к жертвам. События в Одалене стали позорной страницей в истории шведской армии.
• Беа читает в поезде книгу Гюнтера Валльраффа – гуру немецкой журналистики, который проводил сенсационные расследования с помощью заранее подготовленной легенды, тайно внедряясь в интересующие его круги.
• Фильм получил очень плохую прессу из-за «низкопробных и низменных шуточек».
• «Головорезы на сборах» завоевали огромный коммерческий успех, собрав за первые четыре месяца проката 20 миллионов крон, рекордную сумму за всю историю кинематографа Швеции. Дебют Лассе Оберга как режиссера оказался настолько удачным, что киностудии стали ему заказывать комедийные фильмы.

MediaInfo

Общее
Полное имя : D:\Voennye.sbory.1979.DVDRip.740.[Один 777].avi
Формат : AVI
Формат/Информация : Audio Video Interleave
Размер файла : 750 Мбайт
Продолжительность : 1 ч. 20 м.
Общий поток : 1300 Кбит/сек
Программа кодирования : VirtualDubMod 1.5.10.3 | www.virtualdub-fr.org || (build 2550/release)
Библиотека кодирования : VirtualDubMod build 2550/release
Видео
Идентификатор : 0
Формат : MPEG-4 Visual
Профиль формата : Advanced Simple@L5
Параметр BVOP формата : 1
Параметр QPel формата : Нет
Параметр GMC формата : Без точки перехода
Параметр матрицы формата : Default (H.263)
Идентификатор кодека : XVID
Идентификатор кодека/Подсказка : XviD
Продолжительность : 1 ч. 20 м.
Битрейт : 1163 Кбит/сек
Ширина : 640 пикселей
Высота : 352 пикселя
Соотношение сторон : 16:9
Частота кадров : 25,000 кадров/сек
Цветовое пространство : YUV
Субдискретизация насыщенности : 4:2:0
Битовая глубина : 8 бит
Тип развёртки : Прогрессивная
Метод сжатия : С потерями
Бит/(Пиксели*Кадры) : 0.206
Размер потока : 670 Мбайт (89%)
Библиотека кодирования : XviD 73
Аудио
Идентификатор : 1
Формат : MPEG Audio
Версия формата : Version 1
Профиль формата : Layer 3
Идентификатор кодека : 55
Идентификатор кодека/Подсказка : MP3
Продолжительность : 1 ч. 20 м.
Вид битрейта : Постоянный
Битрейт : 128 Кбит/сек
Каналы : 2 канала
Частота : 48,0 КГц
Метод сжатия : С потерями
Размер потока : 73,8 Мбайт (10%)
Выравнивание : Соединение по промежуткам
Продолжительность промежутка : 40 мс. (1,00 видеокадр)
Время предзагрузки промежутка : 504 мс.
Библиотека кодирования : LAME3.99r
Настройки программы : -m s -V 4 -q 2 -lowpass 17 -b 128

Скриншот c названием фильма

Скриншоты

[Профиль] [ЛС]
Кто просматривает тему:

Форум Тема Автор Размер
Author's Song (Авторская военная песня) VA - Сборник песен об афганской войне - Афган - 2009, FLAC (image + .cue), lossless Magnat 467 MB
Author's Song (Авторская песня) Владимир Высоцкий - Все военные песни (2CD) - 2005 [APE, image +.cue, lossless] sergej644 472 MB
Кино СССР ...А зори здесь тихие (Станислав Ростоцкий) [1972, драма, военный, история] DVDRip | Полная версия BOSS 2.83 GB
Фильмы до 2012 года 07-й меняет курс (Владимир Потапов) [2007, Боевик, военный, DVDRip-AVC] sergej644 1.41 GB
Фильмы 2009 года 1066 - Нормандское завоевание Англии / 1066 - The Battle for Middle Earth (Джастин Харди / Justin Hardy) [2009, Великобритания, боевик, военный, история, DVDRip] VO (SDI Media) + Original Eng TorrentFilm 2.19 GB
Фильмы (DVD 5/9) 12 / Двенадцать (Никита Михалков) [2007, Россия, Триллер, драма, криминал, детектив, военный, BD>DVD5 (Custom)] TorrentFilm 4.33 GB
Фильмы (DVD 5/9) 12 / Двенадцать (Никита Михалков) [2007, Россия, Триллер, драма, криминал, детектив, военный, BD>DVD9 (Custom)] TorrentFilm 7.8 GB
Фильмы 2015 года 1944 (Элмо Нюганен / Elmo Nüganen) [2015, Эстония, Финляндия, драма, военный, HDRip] VO TorrentFilm 741 MB
Показать сообщения:    

Текущее время: Сегодня 03:23

Часовой пояс: GMT



Вы не можете начинать темы
Вы не можете отвечать на сообщения
Вы не можете редактировать свои сообщения
Вы не можете удалять свои сообщения
Вы не можете голосовать в опросах
Вы не можете прикреплять файлы к сообщениям
Вы не можете скачивать файлы