Военные потери / Casualties of War (1989) WEB-DL 720p от Переулка Переводмана | Extended Cut | P2, А

 
Автор Сообщение

Russian Mafia ®

Пол:

Стаж: 1 год 8 месяцев

Сообщений: 4252



Награды: 10 (Подробнее)

Mega Seeder 1 (Количество: 1) Mega Seeder 3 (Количество: 1) Mega Seeder 4 (Количество: 1)
Торрент-статистика

Создавать темы 07-Окт-2016 09:25

[Цитировать]

Название: Военные потери
Оригинальное название: Casualties of War
Год выхода: 1989
Страна: США
Студия: Columbia Pictures Corporation
Продолжительность: 01:59:06
Жанр: драма, криминал, военный, ...
Режиссер: Брайан Де Пальма
В ролях: Майкл Дж. Фокс, Шон Пенн, Дон Харви, Джон Си Райли, Джон Легуизамо, Тхюй Тху Ле, Винг Реймз, Дейл Дай, Джек Гуолтни, Эрик Кинг, ...
Перевод:
- Авторский (одноголосый, закадровый) Яроцкий Михаил
- Профессиональный (двухголосый, закадровый) DVO Другое кино (со вставками iDimo)
- Авторский (одноголосый, закадровый) Живов Юрий Викторович (со вставками iDimo)
- Субтитры
О фильме: Фильм основан на реальной истории, случившейся со взводом американских солдат во время войны во Вьетнаме. Рядовой Эрикссон становится свидетелем ужасного изнасилования и убийства вьетнамской девушки во время боевой операции.
Отстаивая свою позицию, он вынужден противостоять всему взводу и его командиру — сержанту Месерву — человеку, давно забывшему о таком чувстве, как сострадание...

Кодек: MPEG-4 AVC
Качество: WEB-DL 720p
Видео: 1280x530, 3864 kbps, 23,976 fps
Аудио #1: AC-3, 6 ch, 640 kbps (Rus) - AVO Яроцкий Михаил (kyberpunk)
Аудио #2: AC-3, 6 ch, 448 kbps (Rus) - DVO Другое кино + iDimo
Аудио #3: AC-3, 2 ch, 192 kbps (Rus) - AVO Живов Юрий Викторович + iDimo
Аудио #4: DTS, 6 ch, 1509 kbps (Eng)
Субтитры: Русские, Английские

Дополнительная информация

Перевод и озвучка Михаила Яроцкого стали доступны благодаря Переулку Переводмана и Pr0peLLer.
Работа со звуком и постер - mihaildns.

MediaInfo

Общее
Уникальный идентификатор : 229687957574236619229369701822482088105 (0xACCC4AA21606E1168A967F772F3000A9)
Полное имя : Военные потери (Casualties of War) 1989 WEB-DL 720p Extended Cut.mkv
Формат : Matroska
Версия формата : Version 2
Размер файла : 5,65 Гбайт
Продолжительность : 1 ч. 59 м.
Общий поток : 6788 Кбит/сек
Дата кодирования : UTC 2016-10-07 07:26:29
Программа кодирования : mkvmerge v4.0.0 ('The Stars were mine') сборка от Jun 6 2010 16:18:42
Библиотека кодирования : libebml v1.0.0 + libmatroska v1.0.0
Видео
Идентификатор : 1
Формат : AVC
Формат/Информация : Advanced Video Codec
Профиль формата : Main@L3.1
Параметр CABAC формата : Нет
Параметр ReFrames формата : 2 кадра
Идентификатор кодека : V_MPEG4/ISO/AVC
Продолжительность : 1 ч. 59 м.
Битрейт : 3864 Кбит/сек
Ширина : 1280 пикселей
Высота : 530 пикселей
Соотношение сторон : 2,40:1
Режим частоты кадров : Постоянный
Частота кадров : 23,976 кадра/сек
Цветовое пространство : YUV
Субдискретизация насыщенности : 4:2:0
Битовая глубина : 8 бит
Тип развёртки : Прогрессивная
Бит/(Пиксели*Кадры) : 0.238
Размер потока : 3,21 Гбайт (57%)
Язык : English
Default : Нет
Forced : Нет
Основные цвета : BT.709
Характеристики трансфера : BT.709
Коэффициенты матрицы : BT.709
Аудио #1
Идентификатор : 2
Формат : AC-3
Формат/Информация : Audio Coding 3
Расширение режима : CM (complete main)
Параметр Endianness формата : Big
Идентификатор кодека : A_AC3
Продолжительность : 1 ч. 59 м.
Вид битрейта : Постоянный
Битрейт : 640 Кбит/сек
Каналы : 6 каналов
Расположение каналов : Front: L C R, Side: L R, LFE
Частота : 48,0 КГц
Битовая глубина : 16 бит
Метод сжатия : С потерями
Размер потока : 545 Мбайт (9%)
Заголовок : AVO Яроцкий Михаил (kyberpunk)
Язык : Russian
Default : Нет
Forced : Нет
Аудио #2
Идентификатор : 3
Формат : AC-3
Формат/Информация : Audio Coding 3
Расширение режима : CM (complete main)
Параметр Endianness формата : Big
Идентификатор кодека : A_AC3
Продолжительность : 1 ч. 59 м.
Вид битрейта : Постоянный
Битрейт : 448 Кбит/сек
Каналы : 6 каналов
Расположение каналов : Front: L C R, Side: L R, LFE
Частота : 48,0 КГц
Битовая глубина : 16 бит
Метод сжатия : С потерями
Размер потока : 382 Мбайт (7%)
Заголовок : DVO Другое кино + iDimo
Язык : Russian
Default : Нет
Forced : Нет
Аудио #3
Идентификатор : 4
Формат : AC-3
Формат/Информация : Audio Coding 3
Расширение режима : CM (complete main)
Параметр Endianness формата : Big
Идентификатор кодека : A_AC3
Продолжительность : 1 ч. 59 м.
Вид битрейта : Постоянный
Битрейт : 192 Кбит/сек
Каналы : 2 канала
Расположение каналов : Front: L R
Частота : 48,0 КГц
Битовая глубина : 16 бит
Метод сжатия : С потерями
Размер потока : 164 Мбайт (3%)
Заголовок : AVO Живов Юрий Викторович + iDimo
Язык : Russian
Default : Нет
Forced : Нет
Аудио #4
Идентификатор : 5
Формат : DTS
Формат/Информация : Digital Theater Systems
Режим : 16
Параметр Endianness формата : Big
Идентификатор кодека : A_DTS
Продолжительность : 1 ч. 59 м.
Вид битрейта : Постоянный
Битрейт : 1509 Кбит/сек
Каналы : 6 каналов
Расположение каналов : Front: L C R, Side: L R, LFE
Частота : 48,0 КГц
Битовая глубина : 16 бит
Метод сжатия : С потерями
Задержка видео : 11 мс.
Размер потока : 1,26 Гбайт (22%)
Язык : English
Default : Нет
Forced : Нет
Текст #1
Идентификатор : 6
Формат : UTF-8
Идентификатор кодека : S_TEXT/UTF8
Идентификатор кодека/Информация : UTF-8 Plain Text
Язык : Russian
Default : Нет
Forced : Нет
Текст #2
Идентификатор : 7
Формат : UTF-8
Идентификатор кодека : S_TEXT/UTF8
Идентификатор кодека/Информация : UTF-8 Plain Text
Язык : English
Default : Нет
Forced : Нет

[Профиль] [ЛС]
Кто просматривает тему:

Форум Тема Автор Размер
Author's Song (Авторская военная песня) VA - Сборник песен об афганской войне - Афган - 2009, FLAC (image + .cue), lossless Magnat 467 MB
Author's Song (Авторская песня) Владимир Высоцкий - Все военные песни (2CD) - 2005 [APE, image +.cue, lossless] sergej644 472 MB
Кино СССР ...А зори здесь тихие (Станислав Ростоцкий) [1972, драма, военный, история] DVDRip | Полная версия BOSS 2.83 GB
Фильмы до 2012 года 07-й меняет курс (Владимир Потапов) [2007, Боевик, военный, DVDRip-AVC] sergej644 1.41 GB
Фильмы 2009 года 1066 - Нормандское завоевание Англии / 1066 - The Battle for Middle Earth (Джастин Харди / Justin Hardy) [2009, Великобритания, боевик, военный, история, DVDRip] VO (SDI Media) + Original Eng TorrentFilm 2.19 GB
Фильмы (DVD 5/9) 12 / Двенадцать (Никита Михалков) [2007, Россия, Триллер, драма, криминал, детектив, военный, BD>DVD5 (Custom)] TorrentFilm 4.33 GB
Фильмы (DVD 5/9) 12 / Двенадцать (Никита Михалков) [2007, Россия, Триллер, драма, криминал, детектив, военный, BD>DVD9 (Custom)] TorrentFilm 7.8 GB
Фильмы 2015 года 1944 (Элмо Нюганен / Elmo Nüganen) [2015, Эстония, Финляндия, драма, военный, HDRip] VO TorrentFilm 741 MB
Показать сообщения:    

Текущее время: Сегодня 00:50

Часовой пояс: GMT



Вы не можете начинать темы
Вы не можете отвечать на сообщения
Вы не можете редактировать свои сообщения
Вы не можете удалять свои сообщения
Вы не можете голосовать в опросах
Вы не можете прикреплять файлы к сообщениям
Вы не можете скачивать файлы