Военная тайна с Игорем Прокопенко (2014.08.23) SATRip

 
Автор Сообщение

sergej644 ®

Пол:

Стаж: 4 года 11 месяцев

Сообщений: 6046

Откуда: Soviet Union



Награды: Нет

Торрент-статистика

Создавать темы 23-Авг-2014 17:07

[Цитировать]

- Военная тайна с Игорем Прокопенко (2014.08.23) SATRip - Режиссер / Телекомпания: РЕН
Русское название: Военная тайна
Год выпуска: 2014
Жанр: Документальный
Описание:
«Военная тайна» — одна из старейших программ на нашем канале, которая имеет очень устойчивую аудиторию и которой нет аналогов на отечественном телевидении. Её содержание полностью соответствует интригующему названию: своими секретами с ведущим и корреспондентами программы делятся военные и политики, разведчики, шпионы и диверсанты, террористы и сотрудники спецслужб. Визитная карточка программы — это эксклюзивная информация, уникальные документы и видеосъемка. Объект исследования парадоксальные события, оставившие след в нашей истории, а также тайные пружины, которые подчас приводят в действие механизм обеспечения безопасности государства.
Ведущий: Игорь Прокопенко
Продолжительность: 03:04:18
Видеокодек: XviD
Битрейт видео: ~1500 kb/s
Размер кадра: 720 x 416
Качество видео: SATRip
Аудиокодек: MP3, 2ch.
Битрейт аудио: 128 kb/s

MediaInfo

Общее
Полное имя : D:\[1]\Военная тайна\Военная тайна с Игорем Прокопенко (2014.08.23).avi
Формат : AVI
Формат/Информация : Audio Video Interleave
Профиль формата : OpenDML
Размер файла : 2,11 Гбайт
Продолжительность : 3 ч. 4 м.
Общий поток : 1641 Кбит/сек
Программа кодирования : VirtualDubMod 1.5.10.3 | www.virtualdub-fr.org || (build 2550/release)
Библиотека кодирования : VirtualDub build 35491/release
Видео
Идентификатор : 0
Формат : MPEG-4 Visual
Профиль формата : Advanced Simple@L5
Параметр BVOP формата : 2
Параметр QPel формата : Нет
Параметр GMC формата : Без точки перехода
Параметр матрицы формата : Default (MPEG)
Идентификатор кодека : XVID
Идентификатор кодека/Подсказка : XviD
Продолжительность : 3 ч. 4 м.
Битрейт : 1500 Кбит/сек
Ширина : 720 пикселей
Высота : 416 пикселей
Соотношение сторон : 16:9
Частота кадров : 25,000 кадров/сек
Цветовое пространство : YUV
Субдискретизация насыщенности : 4:2:0
Битовая глубина : 8 бит
Тип развёртки : Прогрессивная
Метод сжатия : С потерями
Бит/(Пиксели*Кадры) : 0.200
Размер потока : 1,93 Гбайт (91%)
Библиотека кодирования : XviD 1.2.1 (UTC 2008-12-04)
Аудио
Идентификатор : 1
Формат : MPEG Audio
Версия формата : Version 1
Профиль формата : Layer 3
Идентификатор кодека : 55
Идентификатор кодека/Подсказка : MP3
Продолжительность : 3 ч. 4 м.
Вид битрейта : Постоянный
Битрейт : 128 Кбит/сек
Каналы : 2 канала
Частота : 48,0 КГц
Метод сжатия : С потерями
Размер потока : 169 Мбайт (8%)
Выравнивание : Соединение по промежуткам
Продолжительность промежутка : 40 мс. (1,00 видеокадр)
Время предзагрузки промежутка : 504 мс.
Библиотека кодирования : LAME3.99r
Настройки программы : -m s -V 4 -q 2 -lowpass 17 -b 128
Скриншоты: Время раздачи: 24/7. До первых 5 скачавших.
Rip by Просто_Крол-
[Профиль] [ЛС]
Кто просматривает тему:

Форум Тема Автор Размер
Author's Song (Авторская военная песня) VA - Сборник песен об афганской войне - Афган - 2009, FLAC (image + .cue), lossless Magnat 467 MB
Author's Song (Авторская песня) Владимир Высоцкий - Все военные песни (2CD) - 2005 [APE, image +.cue, lossless] sergej644 472 MB
Кино СССР ...А зори здесь тихие (Станислав Ростоцкий) [1972, драма, военный, история] DVDRip | Полная версия BOSS 2.83 GB
Фильмы до 2012 года 07-й меняет курс (Владимир Потапов) [2007, Боевик, военный, DVDRip-AVC] sergej644 1.41 GB
Фильмы 2009 года 1066 - Нормандское завоевание Англии / 1066 - The Battle for Middle Earth (Джастин Харди / Justin Hardy) [2009, Великобритания, боевик, военный, история, DVDRip] VO (SDI Media) + Original Eng TorrentFilm 2.19 GB
Фильмы (DVD 5/9) 12 / Двенадцать (Никита Михалков) [2007, Россия, Триллер, драма, криминал, детектив, военный, BD>DVD5 (Custom)] TorrentFilm 4.33 GB
Фильмы (DVD 5/9) 12 / Двенадцать (Никита Михалков) [2007, Россия, Триллер, драма, криминал, детектив, военный, BD>DVD9 (Custom)] TorrentFilm 7.8 GB
Фильмы 2015 года 1944 (Элмо Нюганен / Elmo Nüganen) [2015, Эстония, Финляндия, драма, военный, HDRip] VO TorrentFilm 741 MB
Показать сообщения:    

Текущее время: Сегодня 18:51

Часовой пояс: GMT



Вы не можете начинать темы
Вы не можете отвечать на сообщения
Вы не можете редактировать свои сообщения
Вы не можете удалять свои сообщения
Вы не можете голосовать в опросах
Вы не можете прикреплять файлы к сообщениям
Вы не можете скачивать файлы