Водопад Ангела / Водопад Серафима / Seraphim Falls (Дэвид Фон Энкен / David Von Ancken) [2006, США, триллер, драма, вестерн, военный, BDRip-AVC] 2x MVO + AVO (Карповский) + Original (Eng) + Sub (Rus, Eng)

 
Автор Сообщение

TorrentFilm ®

Пол:

Стаж: 2 года

Сообщений: 7741



Награды: Нет

Торрент-статистика

Создавать темы 08-Янв-2015 00:00

[Цитировать]

Водопад Ангела / Seraphim Falls
Страна: США
Жанр: боевик, триллер, драма, вестерн, военный
Год выпуска: 2006
Продолжительность: 01:51:51
Перевод#1: Профессиональный (многоголосый закадровый) | R5
Перевод#2: Профессиональный (многоголосый закадровый) | Инис
Перевод#3: Авторский (одноголосый закадровый), А. Карповский (отдельно)
Cубтитры: русские, английские
Оригинальная аудиодорожка: английский
Режиссер: Дэвид Фон Энкен / David Von Ancken
В ролях: Лиам Нисон, Пирс Броснан, Майкл Уинкотт, Ксандер Беркли, Эд Лотер, Том Нунен, Кевин Дж. О’Коннор, Джон Робинсон, Анджелика Хьюстон, Энджи Хэрмон
Описание: Гражданская война закончена, но не для всех. Небольшой отряд наемных стрелков, возглавляемый бывшим полковником армии Конфедератов Карвером, преследует экс-капитана армии Северян Гидеона. Погоня длится не один день, Гидеон ранен и обессилен, но по-прежнему опережает своих врагов. Что пробудило столь сильную ненависть Карвера, остается загадкой…

Исходник: Водопад Ангела / Seraphim Falls (2006) 1080p BD-Remux
Качество видео: BDRip-AVC | | sample
Формат видео: MKV
Видео кодек: x264
Видео: AVC 1150x480 (2.35:1), 23.976 fps, ~4350 Kbps, 0.32 bit/pixel
Аудио #1: Russian AC3 6ch 48kHz 448Kbps | MVO R5
Аудио #2: Russian AC3 2ch 48kHz 192Kbps | MVO Инис
Аудио #3: English AC3 6ch 48kHz 448Kbps | Original
Аудио #4: Russian AC3 2ch 48kHz 192Kbps | AVO Карповский (отдельным файлом)
Формат субтитров: softsub (SRT)
Главы: есть

MediaInfo | x264x264

--[Information] [05.01.2015 11:36:53] raw [info]: 1150x480p 1:1 @ 24000/1001 fps (cfr)
--[Information] [05.01.2015 11:36:53] x264 [info]: profile High, level 4.1
--[Information] [06.01.2015 1:39:14] x264 [info]: frame I:1400 Avg QP:15.54 size:106612
--[Information] [06.01.2015 1:39:15] x264 [info]: frame P:32532 Avg QP:18.14 size: 33331
--[Information] [06.01.2015 1:39:15] x264 [info]: frame B:126982 Avg QP:18.57 size: 19069
--[Information] [06.01.2015 1:39:15] x264 [info]: consecutive B-frames: 1.8% 2.0% 6.6% 16.9% 14.9% 39.6% 7.9% 4.2% 2.1% 1.3% 0.8% 0.9% 0.9%
--[Information] [06.01.2015 1:39:15] x264 [info]: kb/s:4356.81
General
Complete name : D:\...\Seraphim.Falls.2009.BDRip.x264.AC3.2xRus.Eng-E76.mkv
Format : Matroska
Format version : Version 2
File size : 4.26 GiB
Duration : 1h 51mn
Overall bit rate : 5 447 Kbps
Movie name : Seraphim.Falls.2009.BDRip.x264.AC3.2xRus.Eng-E76
Encoded date : UTC 2015-01-06 09:24:13
Writing application : mkvmerge v7.0.0 ('Where We Going') 64bit built on Jun 9 2014 15:16:27
Writing library : libebml v1.3.0 + libmatroska v1.4.1
Video
ID : 1
Format : AVC
Format/Info : Advanced Video Codec
Format profile : High@L4.1
Format settings, CABAC : Yes
Format settings, ReFrames : 12 frames
Codec ID : V_MPEG4/ISO/AVC
Duration : 1h 51mn
Bit rate : 4 251 Kbps
Width : 1 150 pixels
Height : 480 pixels
Display aspect ratio : 2.40:1
Frame rate mode : Constant
Frame rate : 23.976 fps
Color space : YUV
Chroma subsampling : 4:2:0
Bit depth : 8 bits
Scan type : Progressive
Bits/(Pixel*Frame) : 0.321
Stream size : 3.32 GiB (78%)
Title : Seraphim Falls (2009)
Writing library : x264 core 142 r2491kMod 24e4fed
Encoding settings : cabac=1 / ref=12 / deblock=1:-3:-3 / analyse=0x3:0x113 / me=umh / subme=11 / psy=1 / fade_compensate=0.00 / psy_rd=1.05:0.00 / mixed_ref=1 / me_range=48 / chroma_me=1 / trellis=2 / 8x8dct=1 / cqm=0 / deadzone=21,11 / fast_pskip=1 / chroma_qp_offset=-2 / threads=6 / lookahead_threads=1 / sliced_threads=0 / nr=0 / decimate=1 / interlaced=0 / bluray_compat=0 / constrained_intra=0 / fgo=0 / bframes=12 / b_pyramid=2 / b_adapt=2 / b_bias=0 / direct=3 / weightb=1 / open_gop=0 / weightp=2 / keyint=240 / keyint_min=23 / scenecut=40 / intra_refresh=0 / rc_lookahead=0 / rc=crf / mbtree=0 / crf=18.5000 / qcomp=0.75 / qpmin=0 / qpmax=69 / qpstep=4 / vbv_maxrate=62500 / vbv_bufsize=78125 / crf_max=0.0 / nal_hrd=none / filler=0 / ip_ratio=1.40 / pb_ratio=1.10 / aq=3:1.00 / zones=151320,160913,q=30
Language : English
Default : Yes
Forced : No
Matrix coefficients : BT.709
Audio #1
ID : 2
Format : AC-3
Format/Info : Audio Coding 3
Mode extension : CM (complete main)
Format settings, Endianness : Big
Codec ID : A_AC3
Duration : 1h 51mn
Bit rate mode : Constant
Bit rate : 448 Kbps
Channel(s) : 6 channels
Channel positions : Front: L C R, Side: L R, LFE
Sampling rate : 48.0 KHz
Bit depth : 16 bits
Compression mode : Lossy
Stream size : 358 MiB (8%)
Title : MVO R5
Language : Russian
Default : Yes
Forced : No
Audio #2
ID : 3
Format : AC-3
Format/Info : Audio Coding 3
Mode extension : CM (complete main)
Format settings, Endianness : Big
Codec ID : A_AC3
Duration : 1h 51mn
Bit rate mode : Constant
Bit rate : 192 Kbps
Channel(s) : 2 channels
Channel positions : Front: L R
Sampling rate : 48.0 KHz
Bit depth : 16 bits
Compression mode : Lossy
Stream size : 154 MiB (4%)
Title : MVO Inis
Language : Russian
Default : No
Forced : No
Audio #3
ID : 4
Format : AC-3
Format/Info : Audio Coding 3
Mode extension : CM (complete main)
Format settings, Endianness : Big
Codec ID : A_AC3
Duration : 1h 51mn
Bit rate mode : Constant
Bit rate : 448 Kbps
Channel(s) : 6 channels
Channel positions : Front: L C R, Side: L R, LFE
Sampling rate : 48.0 KHz
Bit depth : 16 bits
Compression mode : Lossy
Stream size : 358 MiB (8%)
Title : Original
Language : English
Default : No
Forced : No
Text #1
ID : 5
Format : UTF-8
Codec ID : S_TEXT/UTF8
Codec ID/Info : UTF-8 Plain Text
Language : Russian
Default : No
Forced : No
Text #2
ID : 6
Format : UTF-8
Codec ID : S_TEXT/UTF8
Codec ID/Info : UTF-8 Plain Text
Language : English
Default : No
Forced : No
Text #3
ID : 7
Format : UTF-8
Codec ID : S_TEXT/UTF8
Codec ID/Info : UTF-8 Plain Text
Title : SDH
Language : English
Default : No
Forced : No
Menu
00:00:00.000 : en:00:00:00.000
00:07:59.395 : en:00:07:59.395
...
01:45:13.306 : en:01:45:13.306

Скриншоты



source vs E76 vs Ang+


=> Новые релизы в AVC | | Заказ рипов в AVC
[Профиль] [ЛС]

Создавать темы 06-Авг-2015 22:50 (спустя 6 месяцев 29 дней)

Топик был перенесен из форума Фильмы до 2014 года в форум Фильмы до 2012 года
sergej644
 
Показать сообщения:    

Текущее время: Сегодня 22:02

Часовой пояс: GMT



Вы не можете начинать темы
Вы не можете отвечать на сообщения
Вы не можете редактировать свои сообщения
Вы не можете удалять свои сообщения
Вы не можете голосовать в опросах
Вы не можете прикреплять файлы к сообщениям
Вы не можете скачивать файлы