Водоворот / Whirlpool (Сезон 1 , Серия 1-8 из 8) (Андрей Загидуллин) [2020, Детектив, драма, криминал, триллерWEB-DLRip - HEVC 10bit 1080p]

 
Author Message

Враг Нароода ®

Gender:

Longevity: 5 years 4 months

Posts: 390



: 2 ()

Mega Seeder 1 (1) За внесенный вклад в развитие сайта (1)
Торрент-статистика

Post 12-Jul-2020 10:43

[Quote]

---- Водоворот / Whirlpool - (Сезон 1 , Серия 1-8 из 8) - Полный Комплект -- --Год выпуска: 2020
Выпущено: Россия , Марс Медиа
Жанр: Детектив, драма, криминал, триллер
Продолжительность: 00:27:00
Сезон:1
Серия:1-8
Количество серий в сезоне:8--Озвучка #1: Русский --Релиз Без Рекламы - Ненормативная лексика -- --Режиссеры:
Андрей Загидуллин--В ролях: Владимир Вдовиченков, Алёна Михайлова, Иван Макаревич, Владислав Абашин, Юлия Мельникова, Аристарх Венес, Ирина Алфёрова, Артём Сучков, Олег Васильков, Евгений Харитонов (II), Игорь Миркурбанов, Ольга Ломоносова-- В городском коллекторе группа следователей обнаруживает убитых подростков, которых никто никогда не разыскивал. Раскручивая шаг за шагом это дело, полицейские сталкиваются лицом к лицу с безусловным злом — водоворотом большого города, который засасывает и уничтожает слабых — тех, кого никто не любит и не ждет дома. Зло безнаказанно уничтожает людей, и каждый из героев столкнется с ним лично, заглянет внутрь себя, чтобы встретиться с собственными демонами и страхами.долг.-- --Качество : -WEB-DLRip - HEVC 10bit - 1080p.
Формат: MKV
Видео кодек: H265
Видео: 3001 Кбит/сек,1920х960(2.000),в 25.000 кадр/сек, HEVC (Main10@L5.2@Main)--Аудио Кодек: AC3
Аудио #1: @DD5.1 AC3 , 384 Kbps, 48.0 KHz, 6 ch -Русский--

Доп. информация:

Звуковая дорожка сделана путем наложения чистого голоса озвучивателей на центральный канал оригинальной дорожки. Качество идентично звуковой дорожке.
--

MediaInfo

Общее
Уникальный идентификатор : 110021997520699633469149582364507586447 (0x52C57748EF3803D4135C3C4E73F73F8F)
Полное имя : E:\Baranov\Водоворот - Whirlpool\Whirlpool_2020_S01_HEVC- 10Bit_Н265_DD5.1_N.B_HD_1080_Rus\Whirlpool_2020_E01-E02_HEVC_DD5.1_N.B_HD_1080_Rus.mkv
Формат : Matroska
Версия формата : Version 4
Размер файла : 1,92 Гбайт
Продолжительность : 1 ч. 21 м.
Общий поток : 3 387 Кбит/сек
Название фильма : Whirlpool 2020 E01-E02 @ Nikolai.Baranov & PIRATIYA
Дата кодирования : UTC 2020-07-12 07:29:17
Программа кодирования : mkvmerge v48.0.0 ('Fortress Around Your Heart') 64-bit
Библиотека кодирования : libebml v1.4.0 + libmatroska v1.6.0
Видео
Идентификатор : 1
Формат : HEVC
Формат/Информация : High Efficiency Video Coding
Профиль формата : Main 10@L5.2@Main
Идентификатор кодека : V_MPEGH/ISO/HEVC
Продолжительность : 1 ч. 21 м.
Битрейт : 3 001 Кбит/сек
Ширина : 1 920 пикселей
Высота : 960 пикселей
Соотношение сторон : 2,000
Режим частоты кадров : Постоянный
Частота кадров : 25,000 кадров/сек
Цветовое пространство : YUV
Субдискретизация насыщенности : 4:2:0
Битовая глубина : 10 бит
Бит/(Пиксели*Кадры) : 0.065
Размер потока : 1,70 Гбайт (89%)
Заголовок : Whirlpool_2020_E01-E02_HEVC_DD5.1_N.B_HD_1080_Rus
Язык : Russian
Default : Нет
Forced : Нет
Цветовой диапазон : Full
Основные цвета : BT.709
Характеристики трансфера : BT.709
Коэффициенты матрицы : BT.709
Аудио
Идентификатор : 2
Формат : AC-3
Формат/Информация : Audio Coding 3
Коммерческое название : Dolby Digital
Идентификатор кодека : A_AC3
Продолжительность : 1 ч. 21 м.
Вид битрейта : Постоянный
Битрейт : 384 Кбит/сек
Каналы : 6 каналов
Channel layout : L R C LFE Ls Rs
Частота : 48,0 КГц
Частота кадров : 31,250 кадров/сек (1536 SPF)
Метод сжатия : С потерями
Размер потока : 223 Мбайт (11%)
Заголовок : Original@DD5.1 AC3 , 384 Kbps, 48.0 KHz, 6 ch
Язык : Russian
Service kind : Complete Main
Default : Да
Forced : Нет
Меню
00:00:00.000 : ru:Глава 01 / ru:Глава 01
--

Скриншоты

-- --

Как закачать отдельный файл

1. Открыть торрент
2. Снять галки с тех файлов торрента, которые мы не хотим закачивать. Оставляем только на нужных нам файлах (файле).
3. Нажать О.К.
В клиенте utorrent
Инструкция
1) Открыть торрент

2) Снять галки с тех файлов торрента, которые мы не хотим закачивать:
* либо вручную, снимая с каждого файла галку( скрин №1)
* либо, нажав кнопку "Снять метки (Select None)", сняв сразу со всех файлов(скрин №2)
№1

№2

Оставляем только на нужных нам файлах (файле).

3)Нажать О.К
-- -- --Внимание!!! 09.08 . 2020. РАЗДАЧА ОБНОВЛЕНА. ДОБАВЛЕНА -7-8- СЕРИЯ . Финал Сезона . ОБНОВИТЕ ТОРЕНТ ФАЙЛ. ПРИЯТНОГО ПРОСМОТРА . Поблагодарить:
ЯД: 410017546713876
--Релиз от: Nikolai.Baranov & PIRATIYA -- -- -- --Время раздачи : 24/7---
[Profile] [PM]
Кто просматривает тему:

Forum Topic Author Size
Отечественные cериалы Водоворот [01-08 из 08] (2020) WEBRip BOSS 4.36 GB
Display posts from previous:    

The time now is: Today 18:07

All times are GMT



You cannot post new topics in this forum
You cannot reply to topics in this forum
You cannot edit your posts in this forum
You cannot delete your posts in this forum
You cannot vote in polls in this forum
You cannot attach files in this forum
You cannot download files in this forum