Внутри Эми Шумер / Inside Amy Schumer [S01] (2013) HDTVRip

 
Автор Сообщение

wolf1245 ®

Пол:

Стаж: 4 месяца 17 дней

Сообщений: 48



Награды: Нет

Торрент-статистика

Создавать темы 17-Июл-2016 17:31

[Цитировать]

Информация о фильме
Название: Внутри Эми Шумер
Оригинальное название: Inside Amy Schumer
Год выхода: 2013
Жанр: комедия
Режиссер: Райан МакФол, Нил Бреннан, Стивен К. Цутида
В ролях: Эми Шумер, Кевин Кэйн, Майк Хьюстон, Меган Вульф, Маргарет Роуз Шампейн, Ким Карамел, Нина Метха
О фильме:
Эми Бет Шумер — известная американская стэнд-ап комедиантка, актриса, писательница. «Внутри Эми Шумер» новое скетч-шоу, в котором Эми является сценаристом, исполнительным продюсером и актрисой, исполняющей главную роль.

Страна: США
Продолжительность: ~00:20:00 серия
Перевод: Любительский двухголосый [HamsterStudio]
Файл
Кодек: XviD
Качество: HDTVRip
Видео: 720x400, 1209 Kbps, 23.976 fps
Звук: MP3, 128 кб/с (2 ch)
Семпл

Скриншоты

MediaInfo

General
Complete name : /home/roma/Відео/Внутри Эми Шумер (Inside Amy Schumer)/Inside.Amy.Schumer.s01e01.avi
Format : AVI
Format/Info : Audio Video Interleave
File size : 201 MiB
Duration : 20mn 50s
Overall bit rate : 1 346 Kbps
Writing application : VirtualDubModRus 1.5.10.2 (build 2540/release)
Writing library : VirtualDubMod build 2540/release
Video
ID : 0
Format : MPEG-4 Visual
Format profile : Advanced Simple@L5
Format settings, BVOP : 1
Format settings, QPel : No
Format settings, GMC : No warppoints
Format settings, Matrix : Default (H.263)
Codec ID : XVID
Codec ID/Hint : XviD
Duration : 20mn 50s
Bit rate : 1 209 Kbps
Width : 720 pixels
Height : 400 pixels
Display aspect ratio : 16:9
Frame rate : 23.976 (23976/1000) fps
Color space : YUV
Chroma subsampling : 4:2:0
Bit depth : 8 bits
Scan type : Progressive
Compression mode : Lossy
Bits/(Pixel*Frame) : 0.175
Stream size : 180 MiB (90%)
Writing library : XviD 1.2.1 (UTC 2008-12-04)
Audio
ID : 1
Format : MPEG Audio
Format version : Version 1
Format profile : Layer 3
Mode : Joint stereo
Mode extension : MS Stereo
Codec ID : 55
Codec ID/Hint : MP3
Duration : 20mn 50s
Bit rate mode : Constant
Bit rate : 128 Kbps
Channel(s) : 2 channels
Sampling rate : 48.0 KHz
Compression mode : Lossy
Stream size : 19.1 MiB (10%)
Alignment : Aligned on interleaves
Interleave, duration : 42 ms (1.00 video frame)
Interleave, preload duration : 504 ms
[Профиль] [ЛС]
Показать сообщения:    

Текущее время: Сегодня 09:58

Часовой пояс: GMT



Вы не можете начинать темы
Вы не можете отвечать на сообщения
Вы не можете редактировать свои сообщения
Вы не можете удалять свои сообщения
Вы не можете голосовать в опросах
Вы не можете прикреплять файлы к сообщениям
Вы не можете скачивать файлы