Внимание! Волки! (Ефим Гамбург) [1970, Мультфильм, DVDRip] Eng hardsub

 
Автор Сообщение

TorrentFilm ®

Пол:

Стаж: 2 года

Сообщений: 7741



Награды: Нет

Торрент-статистика

Создавать темы 07-Окт-2015 00:11

[Цитировать]

Внимание! Волки!-Страна: СССР
Жанр: Мультфильм
Продолжительность: 00:16:56
Год выпуска: 1970
Русские субтитры: нет-Режиссёр: Ефим Гамбург- | Релиз: -Описание: Памфлет по мотивам повести Л. Лагина «Белокурая бестия».-Качество: DVDRip
Формат: AVI
Видео: 608x480 (1.27:1), 25 fps, XviD MPEG-4 ~2053 kbps avg, 0.28 bit/pixel
Аудио: 48 kHz, AC3 Dolby Digital, 2/0 (L,R) ch, ~224 kbps
Субтитры: английские вшитые (hardsub)

MediaInfo

GeneralComplete name : Урок не впрок.1971.XviD.AC3-rutracker.aviFormat : AVIFormat/Info : Audio Video InterleaveFile size : 94.8 MiBDuration : 5mn 15sOverall bit rate : 2 524 KbpsMovie name : Урок не впрок.1971.XviD.AC3-rutrackerWriting application : VirtualDubMod 1.5.10.2 (build 2542/release)Comment : РГ Мультфильмы / Rutracker.org
VideoID : 0Format : MPEG-4 VisualFormat profile : Advanced Simple@L5Format settings, BVOP : 2Format settings, QPel : NoFormat settings, GMC : No warppointsFormat settings, Matrix : CustomCodec ID : XVIDCodec ID/Hint : XviDDuration : 5mn 15sBit rate : 2 290 KbpsWidth : 608 pixelsHeight : 480 pixelsDisplay aspect ratio : 5:4Frame rate : 25.000 fpsColor space : YUVChroma subsampling : 4:2:0Bit depth : 8 bitsScan type : ProgressiveCompression mode : LossyBits/(Pixel*Frame) : 0.314Stream size : 86.0 MiB (91%)Writing library : XviD 65
AudioID : 1Format : AC-3Format/Info : Audio Coding 3Mode extension : CM (complete main)Format settings, Endianness : BigCodec ID : 2000Duration : 5mn 14sBit rate mode : ConstantBit rate : 224 KbpsChannel(s) : 2 channelsChannel positions : Front: L RSampling rate : 48.0 KHzCompression mode : LossyStream size : 8.41 MiB (9%)Alignment : Split accross interleavesInterleave, duration : 40 ms (1.00 video frame)Interleave, preload duration : 500 ms
[Профиль] [ЛС]
Кто просматривает тему:

Форум Тема Автор Размер
Фильмы (DVD 5/9) В зоне особого внимания (Андрей Малюков / Михаил Туманишвили) [1977, СССР, военный, боевик, DVD9, чешское издание] + Sub Cze + Original Rus TorrentFilm 7.81 GB
Фильмы (DVD 5/9) В зоне особого внимания / Ответный ход / Absprung in die Todeszone & Der Gegenzug (Андрей Малюков / Михаил Туманишвили) [1977 / 1981, СССР, Боевик, DVD9] Немецкий TorrentFilm 7.52 GB
Фильмы (HD DVD, Blu-ray и BDRemux) В центре внимания / Spotlight (2015) BDRemux 1080p | P, A | Лицензия достали все 33.48 GB
Фильмы (HD Rips | 720p, 1080p) В центре внимания / Spotlight (2015) BDRip 1080p | A BOSS 16.69 GB
Фильмы (HD Rips | 720p, 1080p) В центре внимания / Spotlight (2015) BDRip 1080p | P, A | Лицензия Russian Mafia 17.1 GB
Фильмы (HD Rips | 720p, 1080p) В центре внимания / Spotlight (2015) BDRip 720p | P, A | Лицензия Russian Mafia 9.68 GB
Фильмы (HD Rips | 720p, 1080p) В центре внимания / Spotlight (2015) BDRip 720p от NNNB | P, A Russian Mafia 9.34 GB
Фильмы (HD Rips | 720p, 1080p) В центре внимания / Spotlight (2015) BDRip HEVC 1080p | P | Лицензия Russian Mafia 10.16 GB
Показать сообщения:    

Текущее время: Сегодня 18:59

Часовой пояс: GMT



Вы не можете начинать темы
Вы не можете отвечать на сообщения
Вы не можете редактировать свои сообщения
Вы не можете удалять свои сообщения
Вы не можете голосовать в опросах
Вы не можете прикреплять файлы к сообщениям
Вы не можете скачивать файлы