Вниз по лестнице / Внизу лестницы / Au bas de l\'échelle (Арно Меркадье / Arnauld Mercadier) [2010, Франция, Комедия, SATRip] MVO (Комедия)

 
Автор Сообщение

TorrentFilm ®

Пол:

Стаж: 2 года

Сообщений: 7741



Награды: Нет

Торрент-статистика

Создавать темы 26-Мар-2016 00:09

[Цитировать]

Вниз по лестнице / Внизу лестницы / Au bas de l'échelle
Страна: Франция
Жанр: Комедия
Год выпуска: 2010
Продолжительность: 01:31:17
Перевод: Профессиональный (многоголосый закадровый) Комедия
Cубтитры: нет
Оригинальная аудиодорожка: нет
Режиссер: Арно Меркадье / Arnauld Mercadier
В ролях: Венсан Эльбаз
Клод Брассёр
Элена Ногуэрра
Бернадетт Лафон
Лионель Абелански
Жюли Де Бона
Emmanuel Noblet
Сирилл Элдин
Эдгар Живри
Клаудия Тагбо
Описание: Тибо унаследует от отца завод, которым тот владеет, при одном условии - если сможет полгода проработать там как рядовой работник.
Сэмпл: http://multi-up.com/1094461
Качество видео: SATRip
Формат видео: AVI
Видео: MPEG4, XviD, 720x400 (16:9), 25.000 fps, 1 946 Kbps (0.270 bit/pixel)
Аудио: AC-3, 48.0 KHz, 2 ch, 192 Kbps, CBR

MediaInfo

бщее
Полное имя : M:\Вниз по лестнице.avi
Формат : AVI
Формат/Информация : Audio Video Interleave
Размер файла : 1,37 Гбайт
Продолжительность : 1 ч. 31 м.
Общий поток : 2148 Кбит/сек
Название фильма : Вниз по лестнице / Внизу лестницы / Au bas de l'echelle (2010)
Программа кодирования : VirtualDubMod 1.5.10.2 (build 2540/release)
Авторское право : miha2154
Видео
Идентификатор : 0
Формат : MPEG-4 Visual
Профиль формата : Advanced Simple@L5
Параметр BVOP формата : 1
Параметр QPel формата : Нет
Параметр GMC формата : Без точки перехода
Параметр матрицы формата : Выборочная
Идентификатор кодека : XVID
Идентификатор кодека/Подсказка : XviD
Продолжительность : 1 ч. 31 м.
Битрейт : 1946 Кбит/сек
Ширина : 720 пикселей
Высота : 400 пикселей
Соотношение сторон : 16:9
Частота кадров : 25,000 кадров/сек
Цветовое пространство : YUV
Субдискретизация насыщенности : 4:2:0
Битовая глубина : 8 бит
Тип развёртки : Прогрессивная
Метод сжатия : С потерями
Бит/(Пиксели*Кадры) : 0.270
Размер потока : 1,24 Гбайт (91%)
Библиотека кодирования : XviD 65
Аудио
Идентификатор : 1
Формат : AC-3
Формат/Информация : Audio Coding 3
Расширение режима : CM (complete main)
Параметр Endianness формата : Big
Идентификатор кодека : 2000
Продолжительность : 1 ч. 31 м.
Вид битрейта : Постоянный
Битрейт : 192 Кбит/сек
Каналы : 2 канала
Расположение каналов : Front: L R
Частота : 48,0 КГц
Частота кадров : 31,250 кадров/сек (1536 spf)
Метод сжатия : С потерями
Размер потока : 125 Мбайт (9%)
Выравнивание : Разделение по промежуткам
Продолжительность промежутка : 40 мс. (1,00 видеокадр)
Время предзагрузки промежутка : 500 мс.
Заголовок : Профессиональный (многоголосый закадровый) Комедия ТВ

Скриншоты


[Профиль] [ЛС]

Создавать темы 12-Июн-2016 07:53 (спустя 2 месяца 17 дней)

Топик был перенесен из форума Фильмы 2011 года в форум Фильмы 2010 года
Russian Mafia
 
Кто просматривает тему:

Показать сообщения:    

Текущее время: Сегодня 00:33

Часовой пояс: GMT



Вы не можете начинать темы
Вы не можете отвечать на сообщения
Вы не можете редактировать свои сообщения
Вы не можете удалять свои сообщения
Вы не можете голосовать в опросах
Вы не можете прикреплять файлы к сообщениям
Вы не можете скачивать файлы