Вне/себя / Self/less (Тарсем Сингх / Tarsem Singh) [2015, США, фантастика, триллер, боевик, BDRip-AVC] Dub

 
Автор Сообщение

TorrentFilm ®

Пол:

Стаж: 2 года

Сообщений: 7741



Награды: Нет

Торрент-статистика

Создавать темы 28-Окт-2015 00:10

[Цитировать]

Вне/себя
Self/less
«У бессмертия есть побочные эффекты»


Страна: США
Жанр: фантастика, триллер, боевик
Год выпуска: 2015
Продолжительность: 01:52:12
Перевод: Профессиональный (полное дублирование) [Лицензия BD RUS]
Cубтитры: нет
Оригинальная аудиодорожка: нет
Режиссер: Тарсем Сингх / Tarsem Singh
В ролях: Райан Рейнольдс, Бен Кингсли, Натали Мартинес, Мэттью Гуд, Виктор Гарбер, Дерек Люк, Джейни-Линн Кинчен, Мелора Хардин, Мишель Докери, Сэмюэл Пейдж, Брендан МакКарти, Томас Мерфи
Описание:
Один ученый нашел способ победить смерть с помощью имплантации своего сознания в молодое тело, созданное методом генной инженерии. Операция эта дорогостоящая и проводится подпольно, а поэтому доступна лишь ограниченному кругу лиц. Умирающий пожилой бизнесмен решается на это и получает возможность прожить еще одну жизнь. Однако когда ему приоткрывается тайна происхождения нового тела, за ним начинает охоту секретная организация, которая не остановится ни перед чем, чтобы защитить свои интересы.

Релиз:
Автор рипа: Stalker oK
Сэмпл
Качество видео: BDRip-AVC [Blu-ray Remux 1080i kinozal]
Формат видео: MKV
Видео кодек: AVC
Аудио кодек: AC3
Видео: 1481 Кбит/сек, 960x540 (16:9), 25 кадр/сек, AVC
Аудио: русский, 384 Кбит/сек, 48 КГц, 16 бит, 5.1, AC3
Навигация по главам: есть

MediaInfo

General
Unique ID : 170158341085950651307798747281786178953 (0x80034DEFADF3AD13AA637FEA57F88D89)
Complete name : N:\Rips\Self.less\Self.less.2015.BDRip-AVC.Dub.1.45Gb...stalkerok.new-team.mkv
Format : Matroska
File size : 1.46 GiB
Duration : 1h 52mn
Overall bit rate : 1 860 Kbps
Movie name : Self/less (2015) (New-Team) (Rip by Stalker oK)
Encoded date : UTC 2015-10-27 15:37:58
Writing application : mkvmerge v7.9.0 ('Birds') 64bit
Writing library : libebml v1.3.1 + libmatroska v1.4.2
Video
ID : 1
Format : AVC
Format/Info : Advanced Video Codec
Format profile : High@L4.1
Format settings, CABAC : Yes
Format settings, ReFrames : 12 frames
Codec ID : V_MPEG4/ISO/AVC
Duration : 1h 52mn
Bit rate : 1 481 Kbps
Width : 960 pixels
Height : 540 pixels
Display aspect ratio : 16:9
Frame rate : 25.000 fps
Color space : YUV
Chroma subsampling : 4:2:0
Bit depth : 8 bits
Scan type : Progressive
Bits/(Pixel*Frame) : 0.114
Stream size : 1.13 GiB (77%)
Title : Self/less (2015) (New-Team) (Rip by Stalker oK)
Writing library : x264 core 146 r2538kMod 121396c
Encoding settings : cabac=1 / ref=12 / deblock=1:-3:-3 / analyse=0x3:0x133 / me=umh / subme=11 / psy=1 / fade_compensate=0.00 / psy_rd=1.00:0.10 / mixed_ref=1 / me_range=48 / chroma_me=1 / trellis=2 / 8x8dct=1 / cqm=0 / deadzone=21,11 / fast_pskip=0 / chroma_qp_offset=-3 / threads=12 / lookahead_threads=3 / sliced_threads=0 / nr=0 / decimate=0 / interlaced=0 / bluray_compat=0 / constrained_intra=0 / fgo=0 / bframes=14 / b_pyramid=2 / b_adapt=2 / b_bias=0 / direct=3 / weightb=1 / open_gop=0 / weightp=2 / keyint=250 / keyint_min=25 / scenecut=40 / intra_refresh=0 / rc_lookahead=60 / rc=2pass / mbtree=0 / bitrate=1481 / ratetol=1.0 / qcomp=0.70 / qpmin=0 / qpmax=69 / qpstep=4 / cplxblur=20.0 / qblur=0.5 / vbv_maxrate=50000 / vbv_bufsize=62500 / nal_hrd=none / filler=0 / ip_ratio=1.40 / pb_ratio=1.30 / aq=3:0.90
Audio
ID : 2
Format : AC-3
Format/Info : Audio Coding 3
Mode extension : CM (complete main)
Codec ID : A_AC3
Duration : 1h 52mn
Bit rate mode : Constant
Bit rate : 384 Kbps
Channel(s) : 6 channels
Channel positions : Front: L C R, Side: L R, LFE
Sampling rate : 48.0 KHz
Bit depth : 16 bits
Compression mode : Lossy
Stream size : 308 MiB (21%)
Language : Russian
Menu
00:00:00.000 : en:Chapter 1
00:06:28.320 : en:Chapter 2
00:15:50.360 : en:Chapter 3
00:27:05.160 : en:Chapter 4
00:34:46.400 : en:Chapter 5
00:42:07.880 : en:Chapter 6
00:56:07.840 : en:Chapter 7
01:04:01.200 : en:Chapter 8
01:12:03.200 : en:Chapter 9
01:23:44.000 : en:Chapter 10
01:28:27.800 : en:Chapter 11
01:39:28.080 : en:Chapter 12

Скриншоты

[Профиль] [ЛС]

Создавать темы 28-Окт-2015 06:45 (спустя 6 часов)

Топик был перенесен из форума Фильмы 2014 года в форум Фильмы 2015
Russian Mafia
 
Кто просматривает тему:

Показать сообщения:    

Текущее время: Сегодня 16:58

Часовой пояс: GMT



Вы не можете начинать темы
Вы не можете отвечать на сообщения
Вы не можете редактировать свои сообщения
Вы не можете удалять свои сообщения
Вы не можете голосовать в опросах
Вы не можете прикреплять файлы к сообщениям
Вы не можете скачивать файлы