Вне закона / Outlaws / 1% (2017) WEBRip | L2

 
Author Message

BOSS ®

Gender:

Longevity: 4 years 10 months

Posts: 14162

Location: ODESSA



: 22 ()

За внесенный вклад в развитие сайта (1) Top Keeper 2 (1) Mega Seeder 2 (1)
Торрент-статистика

Post 13-Feb-2019 19:55

[Quote]

Информация о фильме
Название: Вне закона
Оригинальное название: Outlaws / 1%
Год выхода: 2017
Жанр: Криминал
Режиссер: Стив МакКаллум
В ролях: Райан Корр, Эбби Ли, Симона Кессел, Джош МакКонвилл, Мэттью Нэйбл, Аарон Педерсен, Сэм Парсонсон, Эдди Бару, Аарон Фа'аосо, Жаки Уильямс
О фильме:
Фильм рассказывает историю о наследнике лидера одной из банд преступников-байкеров, который вынужден предать главаря, чтобы спасти жизнь своего брата.

Страна: Австралия, Head Gear Films, Kreo Films FZ, Metrol Technology
Продолжительность: 01:34:16
Перевод: Любительский (двухголосый закадровый) | HiWay Grope
Файл
Кодек: XviD
Качество: WEBRip
Видео: 720x304, 23.976 fps, ~1791 kbps, 0.34 bit/pixel
Звук:
Аудио rus: AC3, 48 kHz, 2 ch, 192 Kbps
Субтитры: отсутствуют
Реклама: присутствует
Семпл

MediaInfo:

General
Complete name : D:Outlaws.2017.WEBRip.HiWayGropeOutlaws.2017.WEBRip.HiWayGrope.avi
Format : AVI
Format/Info : Audio Video Interleave
Format profile : OpenDML
File size : 1.31 GiB
Duration : 1 h 34 min
Overall bit rate : 1 990 kb/s
Writing application : Lavf57.71.100
Video
ID : 0
Format : MPEG-4 Visual
Format profile : Advanced Simple@L5
Format settings, BVOP : No
Format settings, QPel : No
Format settings, GMC : No warppoints
Format settings, Matrix : Default (H.263)
Codec ID : XVID
Codec ID/Hint : XviD
Duration : 1 h 34 min
Bit rate : 1 785 kb/s
Width : 720 pixels
Height : 304 pixels
Display aspect ratio : 2.40:1
Frame rate : 23.976 (24000/1001) FPS
Color space : YUV
Chroma subsampling : 4:2:0
Bit depth : 8 bits
Scan type : Progressive
Compression mode : Lossy
Bits/(Pixel*Frame) : 0.340
Stream size : 1.18 GiB (90%)
Writing library : XviD 67
Audio
ID : 1
Format : AC-3
Format/Info : Audio Coding 3
Commercial name : Dolby Digital
Codec ID : 2000
Duration : 1 h 34 min
Bit rate mode : Constant
Bit rate : 192 kb/s
Channel(s) : 2 channels
Channel layout : L R
Sampling rate : 48.0 kHz
Frame rate : 31.250 FPS (1536 SPF)
Bit depth : 16 bits
Compression mode : Lossy
Stream size : 129 MiB (10%)
Alignment : Aligned on interleaves
Interleave, duration : 32 ms (0.77 video frame)
Service kind : Complete Main

Скриншоты

Релиз от: HiWay Grope
[Profile] [PM]
Кто просматривает тему:

Display posts from previous:    

The time now is: Today 15:58

All times are GMT



You cannot post new topics in this forum
You cannot reply to topics in this forum
You cannot edit your posts in this forum
You cannot delete your posts in this forum
You cannot vote in polls in this forum
You cannot attach files in this forum
You cannot download files in this forum