Вместо нее (2015) SATRip (серии 1-8 из 8)

 
Автор Сообщение

достали все ®

Пол:

Стаж: 1 год 8 месяцев

Сообщений: 6563



Награды: 12 (Подробнее)

Mega Seeder 1 (Количество: 1) Mega Releaser 2 (Количество: 1) Top Releaser 2 (Количество: 1)
Торрент-статистика

Создавать темы 03-Май-2015 04:31

[Цитировать]

-Вместо нее (2015) SATRip- Производство: Россия / Кинокомпания «Паламеда продакшн»
Жанр: мелодрама
Режиссер: Алексей Карелин
Актеры: Евгения Осипова, Вероника Пляшкевич, Дмитрий Пчела, Олег Алмазов, Андрей Сенькин, Светлана Кожемякина
Описание:
Подруги Настя и Ира с самого детства вместе. А потом Настя потеряла родителей и стала Ире сестрой – ее взяли к себе сердобольные родители Иры. И вот уже надо делить родительскую любовь, а потом и чувства молодого человека на двоих. И, конечно, единственное стоящее место после института достанется не Ире, а ее сестре Насте. А ведь от любви до ненависти – один шаг. Может, надо просто очернить сестру в глазах всего поселка? А если этого не хватит, то… На что готова пойти бывшая ближайшая подруга, чтобы вновь ощутить себя любимой и нужной?..

Дата Российской премьеры: 1 мая 2015
Качество видео: SATRip
Продолжительность: ~00:43:00 серия
Видеокодек: XviD
Битрейт видео: ~1800 kbps
Размер кадра: 720x384
Аудиокодек: АС3, 2 ch
Битрейт аудио: 192 kbps

MediaInfo

Общее
Полное имя                               : D:\Вместо неё\Vmesto.Nee.01.SATRip..avi
Формат                                   : AVI
Формат/Информация                        : Audio Video Interleave
Размер файла                             : 615 Мбайт
Продолжительность                        : 42 м.
Общий поток                              : 2001 Кбит/сек
Программа кодирования                    : VirtualDubMod 1.5.10.3 | [url=http://www.virtualdub-fr.org]www.virtualdub-fr.org[/url] || (build 2550/release)
Библиотека кодирования                   : VirtualDubMod build 2550/release
Видео
Идентификатор                            : 0
Формат                                   : MPEG-4 Visual
Профиль формата                          : Advanced Simple@L5
Параметр BVOP формата                    : 2
Параметр QPel формата                    : Нет
Параметр GMC формата                     : Без точки перехода
Параметр матрицы формата                 : Default (H.263)
Идентификатор кодека                     : XVID
Идентификатор кодека/Подсказка           : XviD
Продолжительность                        : 42 м.
Битрейт                                  : 1800 Кбит/сек
Ширина                                   : 720 пикселей
Высота                                   : 384 пикселя
Соотношение сторон                       : 1,85:1
Частота кадров                           : 25,000 кадров/сек
Цветовое пространство                    : YUV
Субдискретизация насыщенности            : 4:2:0
Битовая глубина                          : 8 бит
Тип развёртки                            : Прогрессивная
Метод сжатия                             : С потерями
Бит/(Пиксели*Кадры)                      : 0.260
Размер потока                            : 553 Мбайт (90%)
Библиотека кодирования                   : XviD 1.2.1 (UTC 2008-12-04)
Аудио
Идентификатор                            : 1
Формат                                   : AC-3
Формат/Информация                        : Audio Coding 3
Расширение режима                        : CM (complete main)
Параметр Endianness формата              : Big
Идентификатор кодека                     : 2000
Продолжительность                        : 42 м.
Вид битрейта                             : Постоянный
Битрейт                                  : 192 Кбит/сек
Каналы                                   : 2 канала
Расположение каналов                     : Front: L R
Частота                                  : 48,0 КГц
Битовая глубина                          : 16 бит
Метод сжатия                             : С потерями
Размер потока                            : 59,0 Мбайт (10%)
Выравнивание                             : Разделение по промежуткам
Продолжительность промежутка             : 40  мс. (1,00 видеокадр)
Время предзагрузки промежутка            : 500  мс.
Скриншоты:
[Профиль] [ЛС]
Показать сообщения:    

Текущее время: Сегодня 08:33

Часовой пояс: GMT



Вы не можете начинать темы
Вы не можете отвечать на сообщения
Вы не можете редактировать свои сообщения
Вы не можете удалять свои сообщения
Вы не можете голосовать в опросах
Вы не можете прикреплять файлы к сообщениям
Вы не можете скачивать файлы