Влюблённый Шекспир / Shakespeare in Love (1998) HDTVRip 720p by msltel | P | Open Matte

 
Автор Сообщение

sergej644 ®

Пол:

Стаж: 4 года 11 месяцев

Сообщений: 6040

Откуда: Soviet Union



Награды: Нет

Торрент-статистика

Создавать темы 07-Ноя-2014 10:48

[Цитировать]

Год выпуска: 1998
Страна: США, Великобритания
Жанр: драма, мелодрама, комедия
Продолжительность: 01:53:32
Перевод: профессиональный многоголосый
Субтитры: нет
Режиссёр: Джон Мэдден
В ролях: Джозеф Файнс, Гвинет Пэлтроу, Джеффри Раш, Бен Аффлек, Том Уилкинсон, Колин Фёрт, Джуди Денч, Марк Уильямс, Саймон Кэллоу, Стив О’Доннелл, Тим МакМуллан, Стивен Бирд, Мартин Клунес, Патрик Барлоу, Имелда Стонтон, Джим Картер, Сандра Рейнтон, Бриджет МакКоннелл, Джорджи Глен, Николас Болтон, Десмонд МакНамара, Барнеби Кэй, Руперт Фарли, Адам Баркер, Джо Робертс, Гарри Гостелоу, Алан Коуди, Пол Бигли, Дэвид Куртис, Грегор Трутер, Саймон Дэй, Джилл Бейкер, Робин Дейвис, Хайвел Саймонс, Николя Ле Прево, Энтони Шер, Джейсон Роунд, Марк Сабан, Боб Баррет, Роджер Морлидж, Дэниэл Броклбэнк, Роджер Фрост, Ребекка Чарльз
Описание: Лондон. 1594 г. Молодой драматург Уильям Шекспир находится в творческом кризисе: муза покинула его; денег нет; хозяин театра требует от автора новую пьесу в кратчайший срок. И когда, казалось бы, у писателя не остаётся никакой надежды на обретение нового вдохновения, в его жизнь вторгается сама Любовь в лице обворожительной аристократки Виолы. Под видом молодого актёра девушка нанимается в труппу театра, чтобы сыграть главную мужскую роль в пьесе «Ромео и Джульетта». Виола не только преданная поклонница маэстро Шекспира, но и прекрасная актриса. Существует лишь одна загвоздка: Виола обручена с важным дворянином, который планирует отвезти будущую супругу в далёкую английскую колонию…

Качество: HDTVRip 720p
Формат: MKV
Видео кодек: H.264
Аудио кодек: AC3
Видео: 4937 kbps, 1280x720, 25 кадра/с, 0.214 bpp
Аудио: русский, AC3, 192 kbps, 2 ch, 48 kHz [профессиональный многоголосый, OPT]

Награды

«Золотой сателлит» за лучшую комедию, приз за сценарий на МКФ в Берлине в 1999 году, «Чешский лев» в Чехии, Национальная премия кинокритики и кинопрессы в России, приз «Кинема дзюнпо» в Японии — все за лучший иностранный фильм в 1999 году.
Оскар, 1999 год
Победитель (7):
Лучший фильм
Лучшая женская роль (Гвинет Пэлтроу)
Лучшая женская роль второго плана (Джуди Денч)
Лучший сценарий
Лучшие декорации
Лучшие костюмы
Лучший саундтрек к музыкальному/комедийному фильму
Номинации (6):
Лучшая мужская роль второго плана (Джеффри Раш)
Лучший режиссер (Джон Мэдден)
Лучшая работа оператора
Лучший звук
Лучший монтаж
Лучший грим
Золотой глобус, 1999 год
Победитель (3):
Лучший фильм (комедия или мюзикл)
Лучшая женская роль (комедия или мюзикл) (Гвинет Пэлтроу)
Лучший сценарий
Номинации (3):
Лучшая мужская роль второго плана (Джеффри Раш)
Лучшая женская роль второго плана (Джуди Денч)
Лучший режиссер (Джон Мэдден)
Премия канала «MTV», 1999 год
Победитель (1):
Лучший поцелуй (Гвинет Пэлтроу, Джозеф Файнс)
Номинации (3):
Лучший фильм
Лучшая женская роль (Гвинет Пэлтроу)
Мужской прорыв года (Джозеф Файнс)
Британская академия, 1999 год
Победитель (3):
Лучший фильм
Лучшая женская роль второго плана (Джуди Денч)
Лучший монтаж
Номинации (12):
Лучшая мужская роль (Джозеф Файнс)
Лучшая женская роль (Гвинет Пэлтроу)
Лучшая мужская роль второго плана (Джеффри Раш)
Лучшая мужская роль второго плана (Том Уилкинсон)
Лучший оригинальный сценарий
Лучшая работа оператора
Лучшие костюмы
Лучший звук
Лучший грим/прически
Лучшая работа художника-постановщика
Премия имени Дэвида Лина за достижения в режиссуре (Джон Мэдден)
Премия имени Энтони Эскуита за достижения в создании музыки к фильму
Берлинский кинофестиваль, 1999 год
Победитель (2):
Серебряный Медведь за выдающиеся персональные достижения (Том Стоппард, Марк Норман)
Приз газеты Berliner Morgenpost
Номинации (1):
Золотой Медведь
Премия Гильдии актеров, 1999 год
Победитель (2):
Лучший актерский состав
Лучшая женская роль (Гвинет Пэлтроу)
Номинации (3):
Лучшая мужская роль (Джозеф Файнс)
Лучшая женская роль второго плана (Джуди Денч)
Лучшая мужская роль второго плана (Джеффри Раш)

MediaInfo

frame I:1624 Avg QP:15.34 size:109728
frame P:42129 Avg QP:16.47 size: 49122
frame B:126550 Avg QP:18.80 size: 16145
Общее
Уникальный идентификатор : 178363343349160022926347518666770808305 (0x862F87C7E1F42EB8A2E6CBF22328FDF1)
Полное имя : D:VideoVljublennyj Shekspir.1998.HDTVRip.720p.mkv
Формат : Matroska
Версия формата : Version 4 / Version 2
Размер файла : 4,15 Гбайт
Продолжительность : 1 ч. 53 м.
Общий поток : 5233 Кбит/сек
Дата кодирования : UTC 2014-11-07 03:59:15
Программа кодирования : mkvmerge v7.3.0 ('Nouages') 64bit built on Oct 22 2014 18:53:34
Библиотека кодирования : libebml v1.3.0 + libmatroska v1.4.1
DURATION : 01:53:32.000000000
NUMBER_OF_FRAMES : 212875
NUMBER_OF_BYTES : 163488000
_STATISTICS_WRITING_APP : mkvmerge v7.3.0 ('Nouages') 64bit built on Oct 22 2014 18:53:34
_STATISTICS_WRITING_DATE_UTC : 2014-11-07 03:59:15
_STATISTICS_TAGS : BPS DURATION NUMBER_OF_FRAMES NUMBER_OF_BYTES
Видео
Идентификатор : 1
Формат : AVC
Формат/Информация : Advanced Video Codec
Профиль формата : High@L4.1
Параметр CABAC формата : Да
Параметр ReFrames формата : 9 кадров
Идентификатор кодека : V_MPEG4/ISO/AVC
Продолжительность : 1 ч. 53 м.
Битрейт : 4937 Кбит/сек
Ширина : 1280 пикселей
Высота : 720 пикселей
Соотношение сторон : 16:9
Режим частоты кадров : Постоянный
Частота кадров : 25,000 кадров/сек
Цветовое пространство : YUV
Субдискретизация насыщенности : 4:2:0
Битовая глубина : 8 бит
Тип развёртки : Прогрессивная
Бит/(Пиксели*Кадры) : 0.214
Размер потока : 3,91 Гбайт (94%)
Заголовок : HDTVRip -- STarankov
Библиотека кодирования : x264 core 142 r2431 ac76440
Настройки программы : cabac=1 / ref=9 / deblock=1:-1:-1 / analyse=0x3:0x113 / me=umh / subme=10 / psy=1 / psy_rd=1.00:0.15 / mixed_ref=1 / me_range=32 / chroma_me=1 / trellis=2 / 8x8dct=1 / cqm=0 / deadzone=21,11 / fast_pskip=1 / chroma_qp_offset=-3 / threads=6 / lookahead_threads=1 / sliced_threads=0 / nr=0 / decimate=1 / interlaced=0 / bluray_compat=0 / constrained_intra=0 / bframes=8 / b_pyramid=2 / b_adapt=2 / b_bias=0 / direct=3 / weightb=1 / open_gop=0 / weightp=2 / keyint=240 / keyint_min=24 / scenecut=40 / intra_refresh=0 / rc_lookahead=40 / rc=crf / mbtree=0 / crf=17.0 / qcomp=0.60 / qpmin=0 / qpmax=69 / qpstep=4 / vbv_maxrate=50000 / vbv_bufsize=62500 / crf_max=0.0 / nal_hrd=none / filler=0 / ip_ratio=1.40 / pb_ratio=1.30 / aq=1:1.00
Язык : English
Default : Да
Forced : Нет
DURATION : 01:53:32.120000000
NUMBER_OF_FRAMES : 170303
NUMBER_OF_BYTES : 4290775947
_STATISTICS_WRITING_APP : mkvmerge v7.3.0 ('Nouages') 64bit built on Oct 22 2014 18:53:34
_STATISTICS_WRITING_DATE_UTC : 2014-11-07 03:59:15
_STATISTICS_TAGS : BPS DURATION NUMBER_OF_FRAMES NUMBER_OF_BYTES
Аудио
Идентификатор : 2
Формат : AC-3
Формат/Информация : Audio Coding 3
Расширение режима : CM (complete main)
Параметр Endianness формата : Big
Идентификатор кодека : A_AC3
Продолжительность : 1 ч. 53 м.
Вид битрейта : Постоянный
Битрейт : 192 Кбит/сек
Каналы : 2 канала
Расположение каналов : Front: L R
Частота : 48,0 КГц
Битовая глубина : 16 бит
Метод сжатия : С потерями
Размер потока : 156 Мбайт (4%)
Заголовок : MVO (OPT)
Язык : Russian
Default : Да
Forced : Нет

Скриншоты (увеличить)

[Профиль] [ЛС]
Показать сообщения:    

Текущее время: Сегодня 20:42

Часовой пояс: GMT



Вы не можете начинать темы
Вы не можете отвечать на сообщения
Вы не можете редактировать свои сообщения
Вы не можете удалять свои сообщения
Вы не можете голосовать в опросах
Вы не можете прикреплять файлы к сообщениям
Вы не можете скачивать файлы